Новые Варвары / 2019: Новые варвары / The New Barbarians / I nuovi barbari / 1990 The Bronx Warriors / 1990: The Bronx Warriors (Enzo G. Castellari / Энцо Кастеллари) [1982 г., Фантастика, Боевик, Постапокалипсис, BDRip-AVC]

Reply to topic
DL-List and Torrent activity
Size:  1.64 GB   |    Registered:  3 years 9 months   |    Completed:  1 time

Seeder not seen: 2 years 3 months

 
   
 
 
 
Author Message

Guest ®

Gender: Unknown

Post 30-Jan-2013 17:07

[Quote]

Новые Варвары / 2019: Новые варвары / The New Barbarians / I nuovi barbari / 1990 The Bronx Warriors / 1990: The Bronx Warriors
Год выпуска: 1983
Страна: США , Италия
Жанр: Фантастика, Боевик, Постапокалипсис
Продолжительность: 01:30:56
Перевод: Профессиональный (многоголосый, закадровый) 5 канал
Оригинальная аудиодорожка: Английский
Режиссер: Enzo G. Castellari / Энцо Кастеллари
В ролях: Джанкарло Прете, Джордж Истман, Фред Уильямсон, Анна Канакис , Шарон Кэйн , Рэнди Уэст , Джои Сильвера , Рэнди Спирс , Нина Хартли
Описание: 2019 год. Земля превратилась в пустыню, после ядерной катастрофы. Банда байкеров-мародеров, во главе с «Единственным», рыщет по мертвым землям, и истребляет последних, кто остался в живых. Герой-одиночка Скорпион пытается защитить группу людей от мародеров но попадает в ловушку. И тогда выручать его приходит опытный воин Надир…
Качество: DVDRip
Формат: MKV
Видео: x264 1024x434 23.976fps 2200kbps
Аудио 1: Русский Dolby AC3 48000Hz stereo 192kbps
Аудио 2: Английский Dolby AC3 48000Hz stereo 192kbps


Дополнительно

слоган «Dealers in death... exterminators of the 21st century...»
Also Known As (AKA)
2019 - Os Bárbaros do Futuro Brazil (video title)
2019, i nuovi barbari Italy (alternative title)
Die Schlacht der Centurions West Germany (trailer title)
Etter atomkrigen Norway (video box title)
Guerreiros do Futuro Brazil (video title)
Helvete år 2019 Norway (imdb display title)
Les nouveaux barbares France
Los nuevos bárbaros Spain
Metropolis 2000 West Germany
Novi barbari Slovenia (imdb display title)
Oi mahites tis epomenis meras Greece (transliterated ISO-LATIN-1 title)
Os Implacáveis Exterminadores Portugal (imdb display title)
The New Barbarians (undefined)
The New Barbarians: Warriors of the Wasteland USA (DVD box title)
Uudet barbaarit Finland
Warriors of the Wasteland USA

Рецензия

80 — е. Италию захлестнула волна пост — апокалипсических фильмов, на фоне всего остального выплыл второй фильм Энцо Г. Кастеллари в этом жанре — «Новые варвары». В итальянском кинематографе Кастеллари личность никакая, его работы отличались исключительно убого поставленными экшн — сценами (исключение составляют лишь «Войны Бронкса» и «Побег из Бронкса») и «Новые варвары» яркое тому подтверждение.
Начав свой фильм с панорамы города, который то ли из детского конструктора построен, то ли из папье-маше, мягко говоря, удивил своим халтурным отношением к фильму. Все съемки проходили на зелёных лугах, полях и в песчаных оврагах. Ничего пост — апокалипсического, ни трущоб, ни руин мегаполисов, только иногда встречающиеся недействующие заводы. После игрушечного города ещё чуднее: на группу людей нападает банда мародёров — варвары будущего.
Съехав с горы на автомобилях, подобно которым играют дети и оборудованными чёрт знает чем, от огнемёта с копьём, до ракетной установки и лопастей на шесте (предназначенных, видимо, только для отрубания голов, что ярко демонстрируется вначале). И вот так весь фильм: «хорошие» отстреливаются от «плохих» из винтовок М — 16 (не пулями точно) со звуком пиу-пиу. Обидно, что в этом очень неудачном пост — апокалипсическом боевике снялись два по — настоящему хороших актёра: Джордж Истмен в роли главаря банды варваров и Фред Вильямсон, который лихо лупит из лука стрелами (впоследствии взрывающимися) в негодяев.
Итог: для ознакомления с таким замечательным жанром как пост — апокалипсическая фантастика этот фильм не подходит вообще, иначе мнения насчёт этого жанра будет не самое лучшее. В визуальном плане — ужасно, грим и костюмы детский сад. «2019 после падения Нью — Йорка» (2019 dopo la caduta di New — York) — начните с этого, не пожалеете.
3 из 10

Mediainfo

Общее
Уникальный идентификатор : 254706074166480906566081772305957909122 (0xBF9E9B03B75692FB98BC812B6A6DF282)
Полное имя : N:\The New Barbarians 1983.x264.BDRip.AVC.Rus.kosmoaelita.mkv
Формат : Matroska
Версия формата : Version 4 / Version 2
Размер файла : 1,64 Гбайт
Продолжительность : 1 ч. 30 м.
Общий поток : 2586 Кбит/сек
Название фильма : The New Barbarians (1982) kosmoaelita
Дата кодирования : UTC 2016-02-16 08:17:39
Программа кодирования : mkvmerge v6.6.0 ('The Edge Of The In Between') built on Dec 1 2013 17:55:00
Библиотека кодирования : libebml v1.3.0 + libmatroska v1.4.1
Attachments : poster.jpg / The.New.Barbarians.1983.720p.BDRip.xффффф264.mkv.encoding.log
Видео
Идентификатор : 1
Формат : AVC
Формат/Информация : Advanced Video Codec
Профиль формата : High@L4.1
Параметр CABAC формата : Да
Параметр ReFrames формата : 8 кадров
Идентификатор кодека : V_MPEG4/ISO/AVC
Продолжительность : 1 ч. 30 м.
Битрейт : 2200 Кбит/сек
Ширина : 1024 пикселя
Высота : 434 пикселя
Соотношение сторон : 2,35:1
Режим частоты кадров : Постоянный
Частота кадров : 23,976 (24000/1001) кадра/сек
Цветовое пространство : YUV
Субдискретизация насыщенности : 4:2:0
Битовая глубина : 8 бит
Тип развёртки : Прогрессивная
Бит/(Пиксели*Кадры) : 0.206
Размер потока : 1,37 Гбайт (83%)
Заголовок : kosmoaelita
Библиотека кодирования : x264 core 130 r2273 b3065e6
Настройки программы : cabac=1 / ref=8 / deblock=1:-1:-1 / analyse=0x3:0x133 / me=umh / subme=10 / psy=1 / psy_rd=0.99:0.14 / mixed_ref=1 / me_range=24 / chroma_me=1 / trellis=2 / 8x8dct=1 / cqm=0 / deadzone=21,11 / fast_pskip=1 / chroma_qp_offset=-3 / threads=6 / lookahead_threads=1 / sliced_threads=0 / nr=0 / decimate=1 / interlaced=0 / bluray_compat=0 / constrained_intra=0 / bframes=8 / b_pyramid=2 / b_adapt=2 / b_bias=0 / direct=3 / weightb=1 / open_gop=0 / weightp=2 / keyint=210 / keyint_min=21 / scenecut=40 / intra_refresh=0 / rc_lookahead=80 / rc=2pass / mbtree=1 / bitrate=2200 / ratetol=1.0 / qcomp=0.65 / qpmin=0 / qpmax=69 / qpstep=4 / cplxblur=20.0 / qblur=0.5 / ip_ratio=1.25 / aq=1:0.90
Default : Да
Forced : Нет
Цветовой диапазон : Limited
Основные цвета : BT.709
Характеристики трансфера : BT.709
Коэффициенты матрицы : BT.709
Statistics Tags Issue : mkvmerge v7.8.0 ('River Man') 32bit built on Mar 27 2015 16:18:02 2016-02-16 04:21:51 / mkvmerge v6.6.0 ('The Edge Of The In Between') built on Dec 1 2013 17:55:00 2016-02-16 08:17:39
FromStats_BitRate : 2199475
FromStats_Duration : 01:30:54.824000000
FromStats_FrameCount : 130785
FromStats_StreamSize : 1499719277
Аудио #1
Идентификатор : 2
Формат : AC-3
Формат/Информация : Audio Coding 3
Расширение режима : CM (complete main)
Параметр Endianness формата : Big
Идентификатор кодека : A_AC3
Продолжительность : 1 ч. 30 м.
Вид битрейта : Постоянный
Битрейт : 192 Кбит/сек
Каналы : 2 канала
Расположение каналов : Front: L R
Частота : 48,0 КГц
Частота кадров : 31,250 кадров/сек (1536 spf)
Метод сжатия : С потерями
Размер потока : 125 Мбайт (7%)
Заголовок : Русский MVO
Язык : Russian
Default : Да
Forced : Нет
Аудио #2
Идентификатор : 3
Формат : AC-3
Формат/Информация : Audio Coding 3
Расширение режима : CM (complete main)
Параметр Endianness формата : Big
Идентификатор кодека : A_AC3
Продолжительность : 1 ч. 30 м.
Вид битрейта : Постоянный
Битрейт : 192 Кбит/сек
Каналы : 2 канала
Расположение каналов : Front: L R
Частота : 48,0 КГц
Частота кадров : 31,250 кадров/сек (1536 spf)
Метод сжатия : С потерями
Размер потока : 125 Мбайт (7%)
Язык : English
Default : Нет
Forced : Нет
Меню
00:00:00.000 : :Глава 01
00:01:54.070 : :Глава 02
00:10:36.250 : :Глава 03
00:13:12.120 : :Глава 04
00:20:53.270 : :Глава 05
00:29:56.000 : :Глава 06
00:38:25.030 : :Глава 07
00:41:57.020 : :Глава 08
00:44:22.080 : :Глава 09
00:50:40.100 : :Глава 10
00:56:28.130 : :Глава 10
01:02:46.220 : :Глава 13
01:07:39.290 : :Глава 13
01:12:14.280 : :Глава 13
01:24:54.270 : :Глава 13
01:28:33.050 : :Глава 13
01:30:58.000 : :Глава 17

Скриншоты













Скринлист

cd Рип дополнительно залит на ОБЛАКО cd2
The New Barbarians 1983.x264.BDRip.AVC.Rus.kosmoaelita.mkv.torrent
Torrent: Registered [ 2016-02-16 11:42 ]

Download .torrent

Download

66 KB

Status: checked
Completed: 1 times
Size: 1.64 GB
 
 

admin

Gender: Male

Longevity: 7 years 2 months

Posts: 4721

Post 16-Feb-2016 11:34 (after 3 years)

[Quote]

DVDRip заменен на BDRip
[Profile] [PM]
Display posts:    
Reply to topic

Current time is: 21-Nov 11:05

All times are UTC + 3



You cannot post new topics in this forum
You cannot reply to topics in this forum
You cannot edit your posts in this forum
You cannot delete your posts in this forum
You cannot vote in polls in this forum
You cannot attach files in this forum
You can download files in this forum