Земля Минотавра / Люди дьявола / The Devil's Men (Костас Карагианнис / Kostas Karagiannis) [1976, США, Великобритания, Греция, Фантастика, ужасы, DVDRip-AVC] VO (Н. Севастьянов) + Original Eng

Reply to topic
 
Author Message

admin ®

Gender: Male

Longevity: 7 years

Posts: 4725

Location: Україна

Post 05-Sep-2012 15:54

[Quote]

Земля Минотавра / Люди дьявола / The Devil's Men
Страна: США, Великобритания, Греция
Жанр: Фантастика, ужасы
Год выпуска: 1976
Продолжительность: 01:30:22
Перевод: Одноголосый закадровый Н. Севастьянов
Cубтитры: нет
Оригинальная аудиодорожка: английский
Режиссер: Костас Карагианнис / Kostas Karagiannis
В ролях: Дональд Плезенс, Питер Кашинг, Luan Peters, Kostas Karagiorgis, Dimitris Bislanis, Анна Мацурани, Ванна Ревилль, Роберт Белинг
Описание: Барон Карофакс исповедует культ поклонения Сатане на отдаленном острове. Священник отец Роше - единственный житель острова, который не замешан в сатанизме. На острове начинают пропадать иностранные студенты, которые становятся жертвами в ритуалах сатанистов. Отец Роше пытается убедить власти города, что в этом деле замешаны религиозные фанатики, но ему никто не верит. Вскоре к нему на помощь приезжает из Нью-Йорка частный детектив Майло…
Качество видео: DVDRip-AVC
Формат видео: MKV
Видео: x264, 1777 кб/с, 720x464@747x464, 25 к/с, 2pass, crf~18.5
Аудио 1: Русский (AC3, 2кн, 48 КГц, 192 Кбит/с)
Аудио 2: Английский (AC3, 2кн, 48 КГц, 192 Кбит/с)

Релиз

Русская дорожка найдена на asiamorte
Рип с DVD5 c CG и монтаж - sasha20072007
Озвучка: Никита Севастьянов
Сравнение с исходником ДВД5

Дополнительно

Другие названия:
La secte des morts-vivants Belgium (French title) / France (DVD title)
I maska tou Diavolou Greece (transliterated ISO-LATIN-1 title)
La valle del minotauro Italy
Land of the Minotaur USA
The Devil's People UK (working title)
Слоган «Half man . . . half beast . . . trapped in a world forgotten by time!»
Страничка на Кинопоиске
Для удаления и добавления дорожек в mkv используйте бесплатную mkvmerge GUI 5.70

MediaInfo

Общее
Уникальный идентификатор : 190278010079710712539458468732370774066 (0x8F26363466F2480EBCF6ED3148216832)
Полное имя : F:\Classic Sc-Fi Ultimate Collection\The.Devil's.Men.1976.DVDRip.DVD-R.CG\Земля минотавра.1976.x264.DVDRip.(AVC).sasha20072007.mkv
Формат : Matroska
Версия формата : Version 2
Размер файла : 1,37 Гбайт
Продолжительность : 1 ч. 30 м.
Общий поток : 2176 Кбит/сек
Название фильма : Земля Минотавра / The Devil's Men / 1976 / sasha20072007 (2012-08-11)
Дата кодирования : UTC 2012-08-11 02:39:01
Программа кодирования : mkvmerge v5.7.0 ('The Whirlwind') built on Jul 30 2012 20:20:16
Библиотека кодирования : libebml v1.2.3 + libmatroska v1.3.0
Attachment : Yes / Yes / Yes
Видео
Идентификатор : 1
Формат : AVC
Формат/Информация : Advanced Video Codec
Профиль формата : High@L4.1
Параметр CABAC формата : Да
Параметр ReFrames формата : 8 кадров
Идентификатор кодека : V_MPEG4/ISO/AVC
Продолжительность : 1 ч. 30 м.
Битрейт : 1777 Кбит/сек
Ширина : 720 пикселей
Высота : 464 пикселя
Соотношение сторон : 1,610
Соотношение сторон в оригинале : 1,609
Частота кадров : 25,000 кадров/сек
Цветовое пространство : YUV
Субдискретизация насыщенности : 4:2:0
Битовая глубина : 8 бит
Тип развёртки : Прогрессивная
Бит/(Пиксели*Кадры) : 0.213
Размер потока : 1,10 Гбайт (80%)
Библиотека кодирования : x264 core 125 r2200 999b753
Настройки программы : cabac=1 / ref=8 / deblock=1:-3:-2 / analyse=0x3:0x133 / me=umh / subme=11 / psy=1 / psy_rd=1.00:0.20 / mixed_ref=1 / me_range=24 / chroma_me=1 / trellis=2 / 8x8dct=1 / cqm=0 / deadzone=21,11 / fast_pskip=1 / chroma_qp_offset=-3 / threads=6 / lookahead_threads=1 / sliced_threads=0 / nr=0 / decimate=1 / interlaced=0 / bluray_compat=0 / constrained_intra=0 / bframes=8 / b_pyramid=2 / b_adapt=2 / b_bias=0 / direct=3 / weightb=1 / open_gop=0 / weightp=2 / keyint=220 / keyint_min=22 / scenecut=40 / intra_refresh=0 / rc_lookahead=60 / rc=2pass / mbtree=1 / bitrate=1777 / ratetol=1.0 / qcomp=0.60 / qpmin=0 / qpmax=69 / qpstep=4 / cplxblur=20.0 / qblur=0.5 / vbv_maxrate=17500 / vbv_bufsize=14000 / nal_hrd=none / ip_ratio=1.30 / aq=1:0.80
Default : Да
Forced : Нет
Основные цвета : BT.470-6 System B, BT.470-6 System G, BT.601-6 625, BT.1358 625, BT.1700 625 PAL, BT.1700 625 SECAM
Характеристики трансфера : BT.470-6 System B, BT.470-6 System G
Коэффициенты матрицы : BT.470-6 System B, BT.470-6 System G, BT.601-6 625, BT.1358 625, BT.1700 625 PAL, BT.1700 625 SECAM, IEC 61966-2-4 601
Аудио #1
Идентификатор : 2
Формат : AC-3
Формат/Информация : Audio Coding 3
Расширение режима : CM (complete main)
Параметр Endianness формата : Big
Идентификатор кодека : A_AC3
Продолжительность : 1 ч. 30 м.
Вид битрейта : Постоянный
Битрейт : 192 Кбит/сек
Каналы : 2 канала
Расположение каналов : Front: L R
Частота : 48,0 КГц
Битовая глубина : 16 бит
Метод сжатия : С потерями
Размер потока : 124 Мбайт (9%)
Заголовок : Русский (Никита Севастьянов)
Язык : Russian
Default : Да
Forced : Нет
Аудио #2
Идентификатор : 3
Формат : AC-3
Формат/Информация : Audio Coding 3
Расширение режима : CM (complete main)
Параметр Endianness формата : Big
Идентификатор кодека : A_AC3
Продолжительность : 1 ч. 30 м.
Вид битрейта : Постоянный
Битрейт : 192 Кбит/сек
Каналы : 2 канала
Расположение каналов : Front: L R
Частота : 48,0 КГц
Битовая глубина : 16 бит
Метод сжатия : С потерями
Размер потока : 124 Мбайт (9%)
Язык : English
Default : Нет
Forced : Нет
Меню
00:00:00.000 : :Chapter 01
00:10:16.200 : :Chapter 02
00:19:20.000 : :Chapter 03
00:29:49.200 : :Chapter 04
00:39:10.800 : :Chapter 05
00:51:46.600 : :Chapter 06
01:03:33.000 : :Chapter 07
01:09:51.800 : :Chapter 08
01:15:30.000 : :Chapter 09
01:27:32.000 : :Chapter 10

Скриншоты


[Profile] [PM]
Display posts:    
Reply to topic

Current time is: 18-Sep 08:49

All times are UTC + 3



You cannot post new topics in this forum
You cannot reply to topics in this forum
You cannot edit your posts in this forum
You cannot delete your posts in this forum
You cannot vote in polls in this forum
You cannot attach files in this forum
You cannot download files in this forum