Вторжение извне (видео) / U.F.O. (Доминик Бёрнс / Dominic Burns) [2012 г., фантастика, BDrip-1080p] ЛО ()

Reply to topic
 
Author Message

admin ®

Gender: Male

Longevity: 7 years 2 months

Posts: 4723

Post 25-Jan-2013 03:32

[Quote]

Вторжение извне (видео) / U.F.O.
Год выпуска: 2012
Страна: Великобритания
Жанр: фантастика
Продолжительность: 01:41:06
Перевод: Любительский (одноголосый)
Режиссер: Доминик Бёрнс / Dominic Burns
В ролях: Бьянка Бри, Шон Броснан, Саймон Филлипс, Майя Грант, Джазз Линтотт, Питер Баррет, Жан-Клод Ван Дамм, Эндрю Шим, Амелия Линни, Джулиан Гловер
Описание: В центре сюжета — пятеро друзей, которые, проснувшись однажды утром, обнаруживают, что электричества нет, мобильные телефоны не работают, а радио передаёт лишь белый шум. Две ночи спустя причина этой аномалии становится ясна — на их родной город вторгается огромный инопланетный корабльBDRip-AVCКачество: BDRip-1080p, Scenerip
Формат: MKV
Видео: x264, 9309 кбит/с, 1920x1080, 23.976 к/с
Аудио 1: Руcский ЛО (AC3, 6 ch, 448 Кбит/с)
Аудио 2: Английский (AC3, 6 ch, 640 Кбит/с)


Отзывы

низкосортное гэ не пытайтесь качать и перевода не слышно.в мультфильмах графика лучше .фильм ни о чем игры актеров нет вообще!
antigen, фильм действительно уровня Asylum. Или, даже хуже. Ван Дамм скатился в такую яму, что даже не смешно.
Kriksveta бюджетный шлак с допотопной компьютерной графикой . Ван Дамм падает все ниже и ниже. Хотя наверное ниже только Ассулум который по сравнению с этим снимает лучше.О фантастике я сужу по нескольким критериям - внешний вид инопланетян, инопланетные космические корабли, игра актеров, сюжет.Все выше перечисленное здесь реализовано на твердую двойку.
Калифорний солидный , но зачем такое говно вылаживать разрешают? Фильм на 10 баллов а переводить что самому надо? Или весь фильм прислушиваться в напряжении. Так это не просмотр фильма!
Mystyque что Ван Дамм то в последних рядах "в ролях", благодаря нему и касса то может образовалась смайлик+
zamok73 Кинопоиске рейтинг хороший - 6.955, так что не пугайте.За фильм спасибо, ждала его!
vitalikmd Осторожно! Жан-Клод Ван Дамм
Рейтинги фильма пока не о чем не говорят - IMDb 247 проголосовавших / Кинопоиск 19, вообщем надо смотреть
r00ty | сегодня в 19:13Ответитьв сети есть U.F.O. 2012 LiMiTED 720p Blu-ray x264 DTS 5 1 - SONiDO
есть ли в планах наложить дорожку на этот рип?
vitalikmd! Жан-Клод Ван Дамм
Рейтинги фильма пока не о чем не говорят - IMDb 247 проголосовавших / Кинопоиск 19, вообщем надо смотреть
Velesov1972! Полгода ждал! Тут Ван Дамм с дочкой играют

Релиз

Рип найден на publichd
Для Украины: рипы залиты в файлохранилище
Для удаления и добавления дорожек в mkv используйте бесплатную mkvmerge GUI 6.00

Дополнительно

слоган «Try to remain calm»
бюджет $2 500 000

MediaInfo

Общее
Уникальный идентификатор : 183501393935983646700756540870532523537 (0x8A0D153BACAD6413987038FE2257E611)
Полное имя : F:\Вторжение извне U.F.O. 2012.x264.BDRip.1080p.Scen.mkv
Формат : Matroska
Версия формата : Version 4 / Version 2
Размер файла : 7,34 Гбайт
Продолжительность : 1 ч. 41 м.
Общий поток : 10,4 Мбит/сек
Дата кодирования : UTC 2013-01-25 05:24:27
Программа кодирования : mkvmerge v6.0.0 ('Coming Up For Air') built on Jan 20 2013 09:52:00
Библиотека кодирования : libebml v1.3.0 + libmatroska v1.4.0
Видео
Идентификатор : 1
Формат : AVC
Формат/Информация : Advanced Video Codec
Профиль формата : High@L4.1
Параметр CABAC формата : Да
Параметр ReFrames формата : 4 кадра
Идентификатор кодека : V_MPEG4/ISO/AVC
Продолжительность : 1 ч. 41 м.
Битрейт : 9309 Кбит/сек
Ширина : 1920 пикселей
Высота : 1080 пикселей
Соотношение сторон : 16:9
Режим частоты кадров : Постоянный
Частота кадров : 23,976 кадра/сек
Цветовое пространство : YUV
Субдискретизация насыщенности : 4:2:0
Битовая глубина : 8 бит
Тип развёртки : Прогрессивная
Бит/(Пиксели*Кадры) : 0.187
Размер потока : 6,43 Гбайт (88%)
Библиотека кодирования : x264 core 129 r2245 bc13772
Настройки программы : cabac=1 / ref=4 / deblock=1:0:0 / analyse=0x3:0x133 / me=umh / subme=7 / psy=1 / psy_rd=1.00:0.00 / mixed_ref=1 / me_range=16 / chroma_me=1 / trellis=1 / 8x8dct=1 / cqm=0 / deadzone=21,11 / fast_pskip=0 / chroma_qp_offset=-2 / threads=12 / lookahead_threads=2 / sliced_threads=0 / nr=0 / decimate=1 / interlaced=0 / bluray_compat=0 / constrained_intra=0 / bframes=3 / b_pyramid=2 / b_adapt=2 / b_bias=0 / direct=3 / weightb=1 / open_gop=0 / weightp=2 / keyint=250 / keyint_min=23 / scenecut=40 / intra_refresh=0 / rc_lookahead=50 / rc=2pass / mbtree=1 / bitrate=9309 / ratetol=1.0 / qcomp=0.60 / qpmin=0 / qpmax=69 / qpstep=4 / cplxblur=20.0 / qblur=0.5 / ip_ratio=1.40 / aq=1:1.00
Язык : English
Default : Да
Forced : Нет
Аудио #1
Идентификатор : 2
Формат : AC-3
Формат/Информация : Audio Coding 3
Расширение режима : CM (complete main)
Параметр Endianness формата : Big
Идентификатор кодека : A_AC3
Продолжительность : 1 ч. 41 м.
Вид битрейта : Постоянный
Битрейт : 448 Кбит/сек
Каналы : 6 каналов
Расположение каналов : Front: L C R, Side: L R, LFE
Частота : 44,1 КГц
Битовая глубина : 16 бит
Метод сжатия : С потерями
Размер потока : 324 Мбайт (4%)
Заголовок : Русский ЛО - АС3 5.1 448
Язык : Russian
Default : Да
Forced : Да
Аудио #2
Идентификатор : 3
Формат : AC-3
Формат/Информация : Audio Coding 3
Расширение режима : CM (complete main)
Параметр Endianness формата : Big
Идентификатор кодека : A_AC3
Продолжительность : 1 ч. 41 м.
Вид битрейта : Постоянный
Битрейт : 640 Кбит/сек
Каналы : 6 каналов
Расположение каналов : Front: L C R, Side: L R, LFE
Частота : 48,0 КГц
Битовая глубина : 16 бит
Метод сжатия : С потерями
Размер потока : 463 Мбайт (6%)
Заголовок : AC3 5.1 640
Язык : English
Default : Нет
Forced : Нет
Меню
00:00:00.000 : en:00:00:00.000
00:06:16.501 : en:00:06:16.501
00:16:31.824 : en:00:16:31.824
00:23:53.807 : en:00:23:53.807
00:31:55.622 : en:00:31:55.622
00:46:40.881 : en:00:46:40.881
01:00:18.740 : en:01:00:18.740
01:07:43.476 : en:01:07:43.476
01:15:18.347 : en:01:15:18.347
01:23:42.976 : en:01:23:42.976
01:26:36.066 : en:01:26:36.066
01:37:32.138 : en:01:37:32.138

Скриншоты


[Profile] [PM]

pompilius

Gender: Male

Longevity: 2 years

Posts: 236

Post 29-May-2018 20:53 (after 5 years 4 months)

[Quote]

Дайте возможность скачать пожалуйста
[Profile] [PM]
Quick Reply

Name:

            
Heads necessary to send messages to enable JavaScript
Display posts:    
Reply to topic

Current time is: 14-Nov 08:59

All times are UTC + 3



You cannot post new topics in this forum
You can reply to topics in this forum
You cannot edit your posts in this forum
You cannot delete your posts in this forum
You cannot vote in polls in this forum
You cannot attach files in this forum
You cannot download files in this forum