Звёздный странник / Звездный странник / Earth Star Voyager (Джеймс Голдстоун) [1988 г., фантастика, боевик, приключения, VHSRip] ДБ (РТР)

Reply to topic
DL-List and Torrent activity
Size:  1.37 GB   |    Registered:  6 years 11 months   |    Completed:  8 times

Seeder not seen: 4 years 11 months

 
 
 
 
Author Message

Guest ®

Gender: Unknown

Post 25-Jan-2013 01:02

[Quote]

Звёздный странник / Earth Star Voyager
Год выпуска: 1988
Страна: США
Жанр: фантастика, боевик, приключения
Продолжительность: 01:32:39 + 01:27:50
Перевод: Профессиональный (полное дублирование) (РТР)
Режиссер: Джеймс Голдстоун
В ролях: Брайан МакНамара, Дункан Регер, Джулия Монтгомери, Джейсон Михас, Том Брезнахан, Маргарет Лангрик, Шон О"Бирн, Питер Донат, Дина Гастон, Брюс Харвуд
Описание: Пилотная версия сериала, который, несмотря на многочисленные запросы фанатов, не получил продолжения и официально не тиражировался. Конец 21-го века. В то время, как экология планеты земля разрушена, с неба хлещут кислотные дожди и ощущается нехватка кислорода в атмосфере. Единственный шанс выживания человечества - переселение на планету Деметра, по предварительным данным, имеющую атмосферу и схожие с землёй климатические условия. До Деметры 18 световых лет. Поэтому в разведывательный полет снаряжают команду из молодых кадетов лётной академии…
Качество видео: VHSRip
Формат: MKV
Видео: x264, 1724 кбит/с, 720x540, 23.976 к/с
Аудио 1: Русский ДБ (AC3, 2 ch, 192 Кбит/с)
Аудио 2: Английский (AC3, 2 ch, 192 Кбит/с)
Работа над релизом:
Рип с VHSDVD с синемагеддона и работа над русскими дорожками - kosmoaelita



Пример русского перевода

Дополнительно

Also Known As (AKA)
"Csillagutasok" Hungary (imdb display title)
"Die Galaxis der Gesetzlosen" West Germany
"El viajero de las estrellas de la tierra" Spain
"Les voyageurs de l'infini" France (video title)
"Taxidiotes sto apeiro" Greece (video title)

Рецензия

Mediainfo

Общее
Уникальный идентификатор : 232856398211108033728652355136313907898 (0xAF2E82D144E414BDB0072F82A2645ABA)
Полное имя : N:\BD-DISC\1988 Звёздный странник (Earth Star Voyager) 2DVD5\Earth Star Voyager 1988\Earth Star Voyager p1 1988.x264.VHSRip.Rus.kosmoaelita.mkv
Формат : Matroska
Версия формата : Version 4
Размер файла : 1,37 Гбайт
Продолжительность : 1 ч. 32 м.
Общий поток : 2110 Кбит/сек
Название фильма : Звёздный странник / Earth Star Voyager / p1 / 1984 / kosmoaelita
Дата кодирования : UTC 2019-12-04 23:54:16
Программа кодирования : mkvmerge v6.6.0 ('The Edge Of The In Between') built on Dec 1 2013 17:55:00
Библиотека кодирования : libebml v1.3.0 + libmatroska v1.4.1
Attachments : poster.jpg / 1.mkv.encoding.log
Видео
Идентификатор : 1
Формат : AVC
Формат/Информация : Advanced Video Codec
Профиль формата : High@L4.1
Настройки формата : CABAC / 8 Ref Frames
Параметр CABAC формата : Да
Параметр RefFrames формата : 8 кадров
Идентификатор кодека : V_MPEG4/ISO/AVC
Продолжительность : 1 ч. 32 м.
Битрейт : 1724 Кбит/сек
Ширина : 720 пикселей
Высота : 540 пикселей
Соотношение сторон : 4:3
Режим частоты кадров : Постоянный
Частота кадров : 23,976 (24000/1001) кадра/сек
Цветовое пространство : YUV
Субдискретизация насыщенности : 4:2:0
Битовая глубина : 8 бит
Тип развёртки : Прогрессивная
Бит/(Пиксели*Кадры) : 0.185
Размер потока : 1,09 Гбайт (80%)
Заголовок : http://kosmoaelita.com/viewtopic.php?t=537
Библиотека кодирования : x264 core 130 r2273 b3065e6
Настройки программы : cabac=1 / ref=8 / deblock=1:-2:-2 / analyse=0x3:0x131 / me=umh / subme=11 / psy=1 / psy_rd=0.99:0.14 / mixed_ref=1 / me_range=24 / chroma_me=1 / trellis=2 / 8x8dct=1 / cqm=0 / deadzone=21,11 / fast_pskip=1 / chroma_qp_offset=-3 / threads=6 / lookahead_threads=1 / sliced_threads=0 / nr=0 / decimate=1 / interlaced=0 / bluray_compat=0 / constrained_intra=0 / bframes=8 / b_pyramid=2 / b_adapt=2 / b_bias=0 / direct=3 / weightb=1 / open_gop=0 / weightp=2 / keyint=210 / keyint_min=21 / scenecut=40 / intra_refresh=0 / rc_lookahead=80 / rc=2pass / mbtree=1 / bitrate=1724 / ratetol=1.0 / qcomp=0.65 / qpmin=0 / qpmax=69 / qpstep=4 / cplxblur=20.0 / qblur=0.5 / ip_ratio=1.25 / aq=1:0.90
Default : Да
Forced : Нет
Цветовой диапазон : Limited
Основные цвета : BT.601 NTSC
Характеристики трансфера : BT.601
Коэффициенты матрицы : BT.601
Аудио #1
Идентификатор : 2
Формат : AC-3
Формат/Информация : Audio Coding 3
Коммерческое название : Dolby Digital
Идентификатор кодека : A_AC3
Продолжительность : 1 ч. 32 м.
Вид битрейта : Постоянный
Битрейт : 192 Кбит/сек
Каналы : 2 канала
ChannelLayout : L R
Частота : 48,0 КГц
Частота кадров : 31,250 кадров/сек (1536 SPF)
Метод сжатия : С потерями
Размер потока : 127 Мбайт (9%)
Заголовок : Русский ДБ (РТР) c VHS
Язык : Russian
ServiceKind/String : Complete Main
Default : Да
Forced : Нет
Аудио #2
Идентификатор : 3
Формат : AC-3
Формат/Информация : Audio Coding 3
Коммерческое название : Dolby Digital
Идентификатор кодека : A_AC3
Продолжительность : 1 ч. 32 м.
Вид битрейта : Постоянный
Битрейт : 192 Кбит/сек
Каналы : 2 канала
ChannelLayout : L R
Частота : 48,0 КГц
Частота кадров : 31,250 кадров/сек (1536 SPF)
Метод сжатия : С потерями
Размер потока : 127 Мбайт (9%)
Язык : English
ServiceKind/String : Complete Main
Default : Нет
Forced : Нет
Меню
00:00:59.059 : en:00:00:59.059
00:04:18.758 : en:00:04:18.758
00:06:49.910 : en:00:06:49.910
00:15:53.453 : en:00:15:53.453
00:27:27.146 : en:00:27:27.146
00:31:54.913 : en:00:31:54.913
00:36:26.685 : en:00:36:26.685
00:44:13.150 : en:00:44:13.150
00:46:10.267 : en:00:46:10.267
00:52:11.128 : en:00:52:11.128
00:58:42.519 : en:00:58:42.519
01:06:28.985 : en:01:06:28.985
01:10:22.718 : en:01:10:22.718
01:15:31.527 : en:01:15:31.527
01:20:23.318 : en:01:20:23.318
01:26:51.706 : en:01:26:51.706

Скриншоты















Скринлист


Файл дополнительно залит на ОБЛАКО
Zvezdniy_strannik_[Космическая Кино Фантастика Kosmoaelita.com].torrent
Torrent: Registered [ 2013-01-25 01:02 ]

Download .torrent

Download

14 KB

Status: checked
Completed: 8 times
Size: 1.37 GB
 
 
Display posts:    
Reply to topic

Current time is: 22-Jan 07:49

All times are UTC + 3



You cannot post new topics in this forum
You cannot reply to topics in this forum
You cannot edit your posts in this forum
You cannot delete your posts in this forum
You cannot vote in polls in this forum
You cannot attach files in this forum
You can download files in this forum