Звёздный странник / Earth Star Voyager (Джеймс Голдстоун) [1988 г., фантастика, боевик, приключения, VHSRip] ДБ (РТР)

Reply to topic
 
Author Message

Guest ®

Gender: Unknown

Post 25-Jan-2013 01:02

[Quote]

Звёздный странник / Earth Star Voyager
Год выпуска: 1988
Страна: США
Жанр: фантастика, боевик, приключения
Продолжительность: 01:32:33 + 01:27:45
Перевод: Профессиональный (полное дублирование) (РТР)
Режиссер: Джеймс Голдстоун
В ролях: Брайан МакНамара, Дункан Регер, Джулия Монтгомери, Джейсон Михас, Том Брезнахан, Маргарет Лангрик, Шон О"Бирн, Питер Донат, Дина Гастон, Брюс Харвуд
Описание: Пилотная версия сериала, который, несмотря на многочисленные запросы фанатов, не получил продолжения и официально не тиражировался. Конец 21-го века. В то время, как экология планеты земля разрушена, с неба хлещут кислотные дожди и ощущается нехватка кислорода в атмосфере. Единственный шанс выживания человечества - переселение на планету Деметра, по предварительным данным, имеющую атмосферу и схожие с землёй климатические условия. До Деметры 18 световых лет. Поэтому в разведывательный полет снаряжают команду из молодых кадетов лётной академии…
Качество: VHSRip
Формат: AVI
Видео кодек: XviD
Аудио кодек: AC3
Видео: 528x400 23.98fps Bitrate: 858 Kbps
Аудио: 48000Hz stereo 192kbps


Релиз

Рип мой.

Дополнительно

Also Known As (AKA)
"Csillagutasok" Hungary (imdb display title)
"Die Galaxis der Gesetzlosen" West Germany
"El viajero de las estrellas de la tierra" Spain
"Les voyageurs de l'infini" France (video title)
"Taxidiotes sto apeiro" Greece (video title)

Рецензия

Mediainfo

1
General
Complete name : E:\Kino\Звёздный странник(1988)_VHSRip\Звёздный странник1.avi
Format : AVI
Format/Info : Audio Video Interleave
File size : 700 MiB
Duration : 1h 32mn
Overall bit rate : 1 057 Kbps
Writing application : VirtualDubMod 1.5.4.1 (build 2178/release)
Writing library : VirtualDubMod build 2178/release
Video
ID : 0
Format : MPEG-4 Visual
Format profile : Advanced Simple@L5
Format settings, BVOP : 1
Format settings, QPel : No
Format settings, GMC : No warppoints
Format settings, Matrix : Custom
Codec ID : XVID
Codec ID/Hint : XviD
Duration : 1h 32mn
Bit rate : 858 Kbps
Width : 528 pixels
Height : 400 pixels
Display aspect ratio : 4:3
Frame rate : 23.976 fps
Color space : YUV
Chroma subsampling : 4:2:0
Bit depth : 8 bits
Scan type : Progressive
Compression mode : Lossy
Bits/(Pixel*Frame) : 0.169
Stream size : 569 MiB (81%)
Writing library : XviD 1.2.1 (UTC 2008-12-04)
Audio
ID : 1
Format : AC-3
Format/Info : Audio Coding 3
Mode extension : CM (complete main)
Format settings, Endianness : Big
Codec ID : 2000
Duration : 1h 32mn
Bit rate mode : Constant
Bit rate : 192 Kbps
Channel(s) : 2 channels
Channel positions : Front: L R
Sampling rate : 48.0 KHz
Bit depth : 16 bits
Compression mode : Lossy
Delay relative to video : 1ms
Stream size : 127 MiB (18%)
Alignment : Split accross interleaves
Interleave, duration : 96 ms (2.30 video frames)
Interleave, preload duration : 96 ms
Language : Russian
2
General
Complete name : E:\Kino\Звёздный странник(1988)_VHSRip\Звездный странник2.avi
Format : AVI
Format/Info : Audio Video Interleave
File size : 700 MiB
Duration : 1h 27mn
Overall bit rate : 1 115 Kbps
Writing application : VirtualDubMod 1.5.4.1 (build 2178/release)
Writing library : VirtualDubMod build 2178/release
Video
ID : 0
Format : MPEG-4 Visual
Format profile : Advanced Simple@L5
Format settings, BVOP : 1
Format settings, QPel : No
Format settings, GMC : No warppoints
Format settings, Matrix : Custom
Codec ID : XVID
Codec ID/Hint : XviD
Duration : 1h 27mn
Bit rate : 915 Kbps
Width : 512 pixels
Height : 384 pixels
Display aspect ratio : 4:3
Frame rate : 29.970 fps
Color space : YUV
Chroma subsampling : 4:2:0
Bit depth : 8 bits
Scan type : Progressive
Compression mode : Lossy
Bits/(Pixel*Frame) : 0.155
Stream size : 575 MiB (82%)
Writing library : XviD 1.2.1 (UTC 2008-12-04)
Audio
ID : 1
Format : AC-3
Format/Info : Audio Coding 3
Mode extension : CM (complete main)
Format settings, Endianness : Big
Codec ID : 2000
Duration : 1h 27mn
Bit rate mode : Constant
Bit rate : 192 Kbps
Channel(s) : 2 channels
Channel positions : Front: L R
Sampling rate : 48.0 KHz
Bit depth : 16 bits
Compression mode : Lossy
Stream size : 121 MiB (17%)
Alignment : Split accross interleaves
Interleave, duration : 96 ms (2.88 video frames)
Interleave, preload duration : 96 ms
Language : Russian

Скриншоты


 

bot

Post 17-Jun-2019 23:21 (after 6 years 4 months)

Топик был перенесен из форума 1980-1989 г. Начало упадка, последние шедевры в форум Мусорка-Архив 2018-2020
croMAG
 
Display posts:    
Reply to topic

Current time is: 19-Jul 00:27

All times are UTC + 3



You cannot post new topics in this forum
You cannot reply to topics in this forum
You cannot edit your posts in this forum
You cannot delete your posts in this forum
You cannot vote in polls in this forum
You cannot attach files in this forum
You cannot download files in this forum