Лемора: Детская сказка о сверхъестественном / Lemora: A Child's Tale of the Supernatural (Ричард Блэкберн / Richard Blackburn) [1973, США, Фантастика, ужас, фэнтэзи, DVDRip-AVC] AVO Андрей Дольский + Original Eng

Reply to topic
 
Author Message

admin ®

Gender: Male

Longevity: 7 years

Posts: 4725

Location: Україна

Post 05-Sep-2012 15:41

[Quote]

Лемора: Детская сказка о сверхъестественном / Lemora: A Child's Tale of the Supernatural
Страна: США
Жанр: Фантастика, ужас, фэнтэзи
Год выпуска: 1973
Продолжительность: 01:25:03
Перевод: Авторский (одноголосый закадровый) Андрей Дольский
Cубтитры: нет
Оригинальная аудиодорожка: английский
Режиссер: Ричард Блэкберн / Richard Blackburn
В ролях: Лесли Тэплин, Шерил Смит, Уильям Уиттон, Хай Пайк, Максин Бэллентайн, Стив Джонсон, Паркер Уэст, Чарла Холл, Джек Фишер, Бак Бьюкэнэн
Описание: Примерная христианская девушка Лила Ли пела в церковном хоре и усердно молилась господу Иисусу Христу во искупление грехов своих и своего отца, гангстера, «замочившего» из дробовика жену в постели с любовником и отправившегося в бега. А молодой настоятель церкви приводил невинную девушку в пример того, что зло не обязательно порождает зло, и что даже у самых ужасных и греховных родителей могут быть замечательные, добрые, и во всех смыслах чистые дети.Вечером того же дня Лила получает письмо, подписанное женским именем Лемора, с приглашением посетить для отпущения грехов беглого отца и подробными инструкциями о том, как добираться. Разумеется, девушка моментально собралась и отправилась в далекое и опасное путешествие к Леморе. По пути на ее автобус напали дикие зверолюди, утащившие водителя, и если бы не помощь высоких людей в черных одеждах с белыми лицами, Лила была бы ими сожрана.
Но все обошлось, и вскоре она познакомилась с Леморой, высокой, бледной женщиной с пронзительным взглядом и странным свойством не отражаться в зеркалах…

Качество видео: DVDRip-AVC
Формат видео: MKV
Видео: x264, 2047 кб/с, 720x480@853x480, 23.976 к/с, 2pass, crf ~ 15
Аудио 1: Русский (МР3, 2кн, 128 Кбит/с)
Аудио 2: Английский (AC3, 2 кн, 192 Кбит/с)
Аудио 3: Английский (Comment) (AC3, 2 кн, 192 Кбит/с)

Релиз

Рип с ДВД9 с юзенета и монтаж - мои (sasha20072007)
Озвучка: Андрей Дольский
Релиз русской дорожки - Kruger
Лог кодирования и постеры - в контейнере
Сравнение с оригиналом DVD5

Дополнительно

Другие названия:
Lemora Finland / Greece (video title)
Lady Dracula (undefined)
Lemora la metamorfosi di Satana Italy
Lemora, the Lady Dracula USA (TV title)
The Legendary Curse of Lemora (undefined)
The Rape of the Vampires USA (reissue title)
Слоган «Run, little girl! Innocence is in peril tonight!»
Для удаления и добавления дорожек в mkv используйте бесплатную mkvmerge GUI 5.70

Рецензия

Известный гангстер Элвин Ли убивает свою супругу и ее любовника, застав их вместе. У него остается дочь Лила, которая воспитывается в баптистском монастыре под бдительным присмотром суровой и строгой матери-настоятельницы. Однажды Лила получает странное письмо от женщины по имени Лемора. Она пишет, что в настоящий момент ухаживает за ее тяжело больным отцом. Тот очень хочет увидеть ее перед своей скорой и неизбежной смертью. Понимая, что мать-настоятельница никогда не согласится отпустить ее, Лила тайком пакует чемодан и отправляется в самостоятельный путь в городок Астерот. Вскоре она оказывается в необычном городе на пустынной автобусной станции, где любой автобусный маршрут заканчивается катастрофой. Лила отправляется пешком через темный лес, где обитают странные дикие животные. Лила должна использовать все свои способности, чтобы избежать встречи с ними и прибыть в город, где проживает Лемора. Но и тут Лилу поджидают многочисленные загадки. Кто эти отвратительно выглядящие люди? Откуда появились эти дети с отрешенными глазами, живущие вместе с Леморой? Почему, наконец, Лила не может увидеть своего тяжело больного отца?…
Вампирский фильм с лесбийским подтекстом. Дебют Ричарда Блэкберна, потратившего на съемки 28 дней и 200 тысяч долларов. Первый фильм знаменитого гримера Аллана Апоне («Пророчество», 1979; «Резня в госпитале», 1981; «Паразит», 1982; «Пятница 13-3», 1982; «Смертельные глаза», 1982; «Возвращение живых мертвецов», 1985; «Поезд-беглец», 1985; «Вторжение с Марса», 1986; «Возвращение в кошмар», 1987; «Повелители вселенной», 1987; «Незваный гость», 1988; «Земные девушки легко доступны», 1988; «Звездный путь-5», 1989; «Черный дождь», 1989; «Часы отчаяния», 1990; «Солнечный кризис», 1990; «Горячие головы», 1991; «Повелитель зверей-2», 1991; «Беглец», 1992; «Лунатики», 1992; «Снайпер», 1993; «Леденец-2», 1995; «Бэтмен навсегда», 1995; «Сфера», 1998; «Глубокое синее море», 1999; «Шафт», 2000; «Космические ковбои», 2000; «Неуязвимый», 2000; «Очень страшное кино-2», 2001; «ХХХ», 2002). Оценка 2 балла.

MediaInfo

Общее
Уникальный идентификатор : 227928459673094335109381194692669884834 (0xAB796CB05FA23CF6B69178CA05CE49A2)
Полное имя : F:\Лемора Детская сказка о сверхъестественном 1973.x264.DVDRip(AVC).mkv
Формат : Matroska
Версия формата : Version 2
Размер файла : 1,52 Гбайт
Продолжительность : 1 ч. 25 м.
Общий поток : 2562 Кбит/сек
Название фильма : rip by sasha20072007 (2012-08-30)
Дата кодирования : UTC 2012-08-30 03:42:06
Программа кодирования : mkvmerge v5.7.0 ('The Whirlwind') built on Jul 30 2012 20:20:16
Библиотека кодирования : libebml v1.2.3 + libmatroska v1.3.0
Attachment : Yes / Yes / Yes
Видео
Идентификатор : 1
Формат : AVC
Формат/Информация : Advanced Video Codec
Профиль формата : High@L4.1
Параметр CABAC формата : Да
Параметр ReFrames формата : 8 кадров
Идентификатор кодека : V_MPEG4/ISO/AVC
Продолжительность : 1 ч. 25 м.
Битрейт : 2047 Кбит/сек
Ширина : 720 пикселей
Высота : 480 пикселей
Соотношение сторон : 16:9
Соотношение сторон в оригинале : 16:9
Частота кадров : 23,976 кадра/сек
Стандарт вещания : NTSC
Цветовое пространство : YUV
Субдискретизация насыщенности : 4:2:0
Битовая глубина : 8 бит
Тип развёртки : Прогрессивная
Бит/(Пиксели*Кадры) : 0.247
Размер потока : 1,19 Гбайт (78%)
Библиотека кодирования : x264 core 125 r2200 999b753
Настройки программы : cabac=1 / ref=8 / deblock=1:-3:-2 / analyse=0x3:0x133 / me=umh / subme=11 / psy=1 / psy_rd=1.00:0.20 / mixed_ref=1 / me_range=24 / chroma_me=1 / trellis=2 / 8x8dct=1 / cqm=0 / deadzone=21,11 / fast_pskip=1 / chroma_qp_offset=-3 / threads=6 / lookahead_threads=1 / sliced_threads=0 / nr=0 / decimate=1 / interlaced=0 / bluray_compat=0 / constrained_intra=0 / bframes=8 / b_pyramid=2 / b_adapt=2 / b_bias=0 / direct=3 / weightb=1 / open_gop=0 / weightp=2 / keyint=220 / keyint_min=22 / scenecut=40 / intra_refresh=0 / rc_lookahead=60 / rc=2pass / mbtree=1 / bitrate=2047 / ratetol=1.0 / qcomp=0.60 / qpmin=0 / qpmax=69 / qpstep=4 / cplxblur=20.0 / qblur=0.5 / vbv_maxrate=17500 / vbv_bufsize=14000 / nal_hrd=none / ip_ratio=1.27 / aq=1:0.80
Default : Да
Forced : Нет
Основные цвета : BT.601-6 525, BT.1358 525, BT.1700 NTSC, SMPTE 170M
Характеристики трансфера : BT.601-6 525, BT.601-6 625, BT.1358 525, BT.1358 625, BT.1700 NTSC, SMPTE 170M
Коэффициенты матрицы : BT.601-6 525, BT.1358 525, BT.1700 NTSC, SMPTE 170M
Аудио #1
Идентификатор : 2
Формат : MPEG Audio
Версия формата : Version 1
Профиль формата : Layer 3
Режим : Joint stereo
Расширение режима : MS Stereo
Идентификатор кодека : A_MPEG/L3
Идентификатор кодека/Подсказка : MP3
Продолжительность : 1 ч. 25 м.
Вид битрейта : Постоянный
Битрейт : 128 Кбит/сек
Каналы : 2 канала
Частота : 48,0 КГц
Метод сжатия : С потерями
Размер потока : 77,9 Мбайт (5%)
Заголовок : Русский (А.Дольский)
Язык : Russian
Default : Да
Forced : Нет
Аудио #2
Идентификатор : 3
Формат : AC-3
Формат/Информация : Audio Coding 3
Расширение режима : CM (complete main)
Параметр Endianness формата : Big
Идентификатор кодека : A_AC3
Продолжительность : 1 ч. 25 м.
Вид битрейта : Постоянный
Битрейт : 192 Кбит/сек
Каналы : 2 канала
Расположение каналов : Front: L R
Частота : 48,0 КГц
Битовая глубина : 16 бит
Метод сжатия : С потерями
Размер потока : 117 Мбайт (7%)
Язык : English
Default : Нет
Forced : Нет
Аудио #3
Идентификатор : 4
Формат : AC-3
Формат/Информация : Audio Coding 3
Расширение режима : CM (complete main)
Параметр Endianness формата : Big
Идентификатор кодека : A_AC3
Продолжительность : 1 ч. 25 м.
Вид битрейта : Постоянный
Битрейт : 192 Кбит/сек
Каналы : 2 канала
Расположение каналов : Front: L R
Частота : 48,0 КГц
Битовая глубина : 16 бит
Метод сжатия : С потерями
Размер потока : 117 Мбайт (7%)
Заголовок : Comment
Язык : English
Default : Нет
Forced : Нет
Меню
00:00:00.000 : :Chapter 01
00:04:42.000 : :Chapter 02
00:07:45.500 : :Chapter 03
00:13:04.301 : :Chapter 04
00:19:54.035 : :Chapter 05
00:24:18.636 : :Chapter 06
00:30:04.936 : :Chapter 07
00:33:48.103 : :Chapter 08
00:39:23.937 : :Chapter 09
00:40:50.937 : :Chapter 10
00:45:30.471 : :Chapter 11
00:52:57.138 : :Chapter 12
00:56:58.106 : :Chapter 13
01:03:14.273 : :Chapter 14
01:09:46.273 : :Chapter 15
01:12:16.607 : :Chapter 16
01:15:25.941 : :Chapter 17
01:17:50.475 : :Chapter 18
01:20:35.276 : :Chapter 19
01:22:12.643 : :Chapter 20
01:24:57.776 : :Chapter 21

Скриншоты

[Profile] [PM]
Display posts:    
Reply to topic

Current time is: 22-Sep 09:22

All times are UTC + 3



You cannot post new topics in this forum
You cannot reply to topics in this forum
You cannot edit your posts in this forum
You cannot delete your posts in this forum
You cannot vote in polls in this forum
You cannot attach files in this forum
You cannot download files in this forum