Солнца острова Пасхи / Les soleils de l'Ile de Pâques / The Suns of Easter Island (Пьер Каст / Pierre Kast) [1972, Франция, Бразилия, Чили, Фантастика, драма, DVDRip-AVC] VO Horror Maker + Sub Eng + Original Fre

Reply to topic
 
Author Message

admin ®

Gender: Male

Longevity: 7 years

Posts: 4725

Location: Україна

Post 05-Sep-2012 10:05

[Quote]

Солнца острова Пасхи / Les soleils de l'Ile de Pâques / The Suns of Easter Island
Страна: Франция, Бразилия, Чили
Жанр: Фантастика, драма
Год выпуска: 1972
Продолжительность: 01:30:26
Перевод: Одноголосый закадровый Доп. инфо о переводе Horror Maker
Cубтитры: английские, французские
Оригинальная аудиодорожка: французский
Режиссер: Пьер Каст / Pierre Kast
В ролях: Норма Бенгелл, Франсуаз Брион, Жак Шаррье, Морис Гаррель, Марсело Ромо, Александра Стюарт, Zózimo Bulbul, Урсула Кюблер, Карлус Диегис, Руй Гуерра
Описание: В разных местах планеты шесть незнакомых между собой людей начинают страдать одинаковыми галлюцинациями, а на ладони у них появляется странное пятно в виде серебряной окружности. Все они пытаются выяснить причину этих странных событий и в конце концов находят друг друга и отправляются на остров Пасхи, поскольку именно там должно произойти некое важное событие, связанное с космосом."Солнца острова Пасхи" вышел на пять лет раньше "Близких контактов третьего вида". Фильм Пьера Каста примерно о том же, о чем и блокбастер Стивена Спилберга. Отличие в том, что "Остров Пасхи" больше похож на "Клуб кинопутешественников" и густо замешан на эзотерике.
Качество видео: DVDRip-AVC
Формат видео: MKV
Видео: x264, 1557 Кбит/с, 720x544, 25,000 к/с, crf=20
Аудио 1: Русский (AC3, 2 кн, 192 Кбит/с)
Аудио 2: Французский (AC3, 2 кн, 256 Кбит/с)
Субтитры 1: Английские, VobSub
Субтитры 2: Французские, VobSub

Релиз

Рип с ДВД5, монтаж - sasha20072007, качество рипа - crf=20
Озвучка - одноголосый Horror Maker

Дополнительно

Сравнение с исходником DVD5
Страничка на Кинопоиске
Другие названия:
Другие названия:
Os Sois da Ilha de Pascoa Brazil
The Suns of Easter Island International (English title)
Для удаления и добавления дорожек в mkv используйте бесплатную mkvmerge GUI 5.70

MediaInfo

Общее
Уникальный идентификатор : 186980781264480121661952646482391168346 (0x8CAB3045E02C58FCBD63BF3D7A47755A)
Полное имя : E:\Solntse.ostrova.Pashi.1972.x264.DVDRip.sasha20072007.mkv
Формат : Matroska
Версия формата : Version 2
Размер файла : 1,29 Гбайт
Продолжительность : 1 ч. 30 м.
Общий поток : 2046 Кбит/сек
Название фильма : Les soleils de l'Ile de Pâques / Солнце острова Пасхи / 1972 / rip by sasha20072007
Дата кодирования : UTC 2012-05-04 18:52:20
Программа кодирования : mkvmerge v5.5.0 ('Healer') built on Apr 24 2012 23:47:03
Библиотека кодирования : libebml v1.2.3 + libmatroska v1.3.0
Attachment : Yes / Yes
Видео
Идентификатор : 1
Формат : AVC
Формат/Информация : Advanced Video Codec
Профиль формата : High@L4.1
Параметр CABAC формата : Да
Параметр ReFrames формата : 10 кадров
Идентификатор кодека : V_MPEG4/ISO/AVC
Продолжительность : 1 ч. 30 м.
Битрейт : 1557 Кбит/сек
Ширина : 720 пикселей
Высота : 544 пикселя
Соотношение сторон : 4:3
Частота кадров : 25,000 кадров/сек
Цветовое пространство : YUV
Субдискретизация насыщенности : 4:2:0
Битовая глубина : 8 бит
Тип развёртки : Прогрессивная
Бит/(Пиксели*Кадры) : 0.159
Размер потока : 1007 Мбайт (76%)
Библиотека кодирования : x264 core 120 r2164 da19765
Настройки программы : cabac=1 / ref=10 / deblock=1:-2:-2 / analyse=0x3:0x133 / me=umh / subme=11 / psy=1 / psy_rd=1.00:0.18 / mixed_ref=1 / me_range=24 / chroma_me=1 / trellis=2 / 8x8dct=1 / cqm=0 / deadzone=21,11 / fast_pskip=1 / chroma_qp_offset=-3 / threads=12 / sliced_threads=0 / nr=0 / decimate=1 / interlaced=0 / bluray_compat=0 / constrained_intra=0 / bframes=10 / b_pyramid=2 / b_adapt=2 / b_bias=0 / direct=3 / weightb=1 / open_gop=0 / weightp=2 / keyint=220 / keyint_min=22 / scenecut=40 / intra_refresh=0 / rc_lookahead=60 / rc=crf / mbtree=1 / crf=20.0 / qcomp=0.60 / qpmin=0 / qpmax=69 / qpstep=4 / vbv_maxrate=17500 / vbv_bufsize=14000 / crf_max=0.0 / nal_hrd=none / ip_ratio=1.25 / aq=1:0.90
Default : Да
Forced : Нет
Аудио #1
Идентификатор : 2
Формат : AC-3
Формат/Информация : Audio Coding 3
Расширение режима : CM (complete main)
Параметр Endianness формата : Big
Идентификатор кодека : A_AC3
Продолжительность : 1 ч. 30 м.
Вид битрейта : Постоянный
Битрейт : 192 Кбит/сек
Каналы : 2 канала
Расположение каналов : Front: L R
Частота : 48,0 КГц
Битовая глубина : 16 бит
Метод сжатия : С потерями
Размер потока : 124 Мбайт (9%)
Заголовок : Русский (Horror Maker)
Язык : Russian
Default : Да
Forced : Нет
Аудио #2
Идентификатор : 3
Формат : AC-3
Формат/Информация : Audio Coding 3
Расширение режима : CM (complete main)
Параметр Endianness формата : Big
Идентификатор кодека : A_AC3
Продолжительность : 1 ч. 30 м.
Вид битрейта : Постоянный
Битрейт : 256 Кбит/сек
Каналы : 2 канала
Расположение каналов : Front: L R
Частота : 48,0 КГц
Битовая глубина : 16 бит
Метод сжатия : С потерями
Размер потока : 166 Мбайт (13%)
Язык : French
Default : Нет
Forced : Нет
Текст #1
Идентификатор : 4
Формат : VobSub
Идентификатор кодека : S_VOBSUB
Идентификатор кодека/Информация : The same subtitle format used on DVDs
Язык : English
Default : Нет
Forced : Нет
Текст #2
Идентификатор : 5
Формат : VobSub
Идентификатор кодека : S_VOBSUB
Идентификатор кодека/Информация : The same subtitle format used on DVDs
Язык : French
Default : Нет
Forced : Нет
Меню
00:00:00.000 : :Chapter 01
00:08:40.680 : :Chapter 02
00:13:14.400 : :Chapter 03
00:19:35.880 : :Chapter 04
00:23:15.360 : :Chapter 05
00:26:19.200 : :Chapter 06
00:29:51.000 : :Chapter 07
00:33:27.040 : :Chapter 08
00:39:47.080 : :Chapter 09
00:46:01.360 : :Chapter 10
00:52:37.840 : :Chapter 11
01:00:37.520 : :Chapter 12
01:10:08.840 : :Chapter 13
01:18:18.800 : :Chapter 14
01:25:06.920 : :Chapter 15

Скриншоты


cd Рип дополнительно залит на mail.ru cd2
[Profile] [PM]

CROM@G

Gender: Male

Longevity: 4 years

Posts: 2253

Location: Прибалтика

Post 05-Dec-2016 02:44 (after 4 years 2 months)

[Quote]

Хехе Синемаскопный релиз Я там на него сбор творил
[Profile] [PM]
Display posts:    
Reply to topic

Current time is: 22-Sep 08:53

All times are UTC + 3



You cannot post new topics in this forum
You cannot reply to topics in this forum
You cannot edit your posts in this forum
You cannot delete your posts in this forum
You cannot vote in polls in this forum
You cannot attach files in this forum
You cannot download files in this forum