Последствия / Повторный удар / Aftershock (Фрэнк Харрис / Frank Harris) [1990 г., фантастика, боевик, DVDRip] СТ (kosmoaelita-Severnyj)

Reply to topic
 
Author Message

admin ®

Gender: Male

Longevity: 7 years 3 months

Posts: 4812

Post 12-Jan-2013 01:53

[Quote]

Последствия / Повторный удар / Aftershock
Релиз - kosmoaelita.com
Год выпуска: 1990
Страна: США
Жанр: Фантастика, постапокалипсис, боевик
Продолжительность: 01:31:53
Перевод: Субтитры (kosmoaelita-Severnyj)
Режиссер: Фрэнк Харрис / Frank Harris
В ролях: Джеймс Лью, Майкл Стэндинг, Элизабет Кайтан, Джей Робертс мл., Крис Дероса, Джон Сэксон, Дианна Оливер, Расс Тэмблин, Маттиас Хьюз, Майкл Берриман
Релиз увидел свет благодаря sasha20072007, sfiction, $Shorox
Описание: Как и положено, после очередной мировой войны наступили трудные антиутопические времена: кругом разруха, власть в руках злобных милитаристов, которым пытаются противостоять подпольщики-демократы. Посреди этого хаоса вдруг материализуется девушка - посланник иной цивилизации (Элизабет Каитан, она играла Гретхен Хоуп в "Roller Blade Warriors: Taken by Force"). Сабина (так ее прозвали по месту, где она объявилась) явно не от мира сего: на руке нет штрих-кода, говорить поначалу не умеет, чересчур наивная, зато тесты показывают, что ее iq в два раза выше любого человека, а возраст соответствует грудному младенцу. Разумеется, военные пытаются инопланетянку поймать, а защищают ее отважный воин-одиночка и благородные повстанцы. Зачем она прилетела? Дело в том, что братья по разуму ошиблись: они поверили лживым улыбкам земных политиков, транслируемых по тв, и захотели научиться у человечества мирному существованию, однако, пока Сабина до Земли добралась, улыбки сменились жестокостью и убийствами...
Хороший развлекательный фильмец с ПА-антуражами, множеством неплохих драк и легкой непринужденной атмосферой. Но что меня поразило - это количество узнаваемых лиц (не всех я, правда, по именам помнил): упомянутая Каитан, Джон Сэксон, Маттиас Хьюз, Ричард Линч, Майкл Берримэн, Джеймс Лью, Расс Тэмблин (доктор Джекоби из "Твин Пикса"), Крис ДеРоуз (этого я недавно видел в австралийском "Ghosts... of the Civil Dead"), Джеральд Окамура в камео... Фильм для поклонников жанрового кино 80-х-начала 90-х

Качество: DVDRip
Формат: MKV
Видео: x264, 1810 кбит/с, 704x536, 23.976 к/с
Аудио: Английский (AC3, 2 ch, 224 Кбит/с)
Субтитры : Русские (Severnyj)
Работа над релизом:
Релиз kosmoaelita.com
Рип c DVD5 c CG - kosmoaelita
Перевод осуществлен на сборы от sasha20072007, sfiction, $Shorox
Перевод на слух с английского - Severnyj



Трейлер:

Дополнительно

Also Known As (AKA)
After Shock France / USA (alternative spelling)
After Shock. Después del futuro Spain
Po wstrzasie Poland

Отзывы

03 Дек. 2014 16:45
Пока смотрел, ломал голову: какой же невероятно наивной должна быть "высокоразвитая цивилизация со звёзд", посылающая своего эмиссара за "тридевять планет" только потому, что политики в "радиоприветствии" с Земли так широко и приветливо улыбались! Теперь причина ясна: сценарий написал Майкл Стэндинг, нигде, кроме этого фильма, "не засветившийся". Поэтому и фильм получился убегалкой-догонялкой-бродилкой-пострелялкой в цехах заброшенного завода. Правда, некоторые актёры свои роли отыграли хорошо: негр-повстанец, защитник "инопланетного эмиссара" и сама "девушка со звёзд" - Сабина, которую сыграла Элизабет Кайтан, за плечами которой уже имелся внушительный "послужной список" ролей подобного плана.

Рецензия

MediaInfo

Общее
Уникальный идентификатор : 250097368973655486517866918069773111576 (0xBC27004E1C78EC75A281587C95E59118)
Полное имя : F:\Последствия Aftershock 1990.XviD.DVDRip.Rus.sub\Aftershock 1990.x264.DVDRip.kosmoaelita.mkv
Формат : Matroska
Версия формата : Version 4 / Version 2
Размер файла : 1,31 Гбайт
Продолжительность : 1 ч. 31 м.
Общий поток : 2036 Кбит/сек
Название фильма : Aftershock / 1990 / rip from NTSC DVD5 by sasha20072007 (kosmoaelita) (2017-01-17), crf=19.35
Дата кодирования : UTC 2017-01-18 00:05:59
Программа кодирования : mkvmerge v6.6.0 ('The Edge Of The In Between') built on Dec 1 2013 17:55:00
Библиотека кодирования : libebml v1.3.0 + libmatroska v1.4.1
Attachments : VTS_01_1_001.mkv.encoding.log / poster aftershock.jpg
Видео
Идентификатор : 1
Формат : AVC
Формат/Информация : Advanced Video Codec
Профиль формата : High@L4.1
Параметр CABAC формата : Да
Параметр ReFrames формата : 8 кадров
Идентификатор кодека : V_MPEG4/ISO/AVC
Продолжительность : 1 ч. 31 м.
Битрейт : 1810 Кбит/сек
Ширина : 704 пикселя
Высота : 536 пикселей
Соотношение сторон : 4:3
Режим частоты кадров : Постоянный
Частота кадров : 23,976 (24000/1001) кадра/сек
Цветовое пространство : YUV
Субдискретизация насыщенности : 4:2:0
Битовая глубина : 8 бит
Тип развёртки : Прогрессивная
Бит/(Пиксели*Кадры) : 0.200
Размер потока : 1,14 Гбайт (87%)
Заголовок : kosmoaelita
Библиотека кодирования : x264 core 130 r2273 b3065e6
Настройки программы : cabac=1 / ref=8 / deblock=1:-1:-1 / analyse=0x3:0x133 / me=umh / subme=11 / psy=1 / psy_rd=0.99:0.14 / mixed_ref=1 / me_range=24 / chroma_me=1 / trellis=2 / 8x8dct=1 / cqm=0 / deadzone=21,11 / fast_pskip=1 / chroma_qp_offset=-3 / threads=6 / lookahead_threads=1 / sliced_threads=0 / nr=0 / decimate=1 / interlaced=0 / bluray_compat=0 / constrained_intra=0 / bframes=8 / b_pyramid=2 / b_adapt=2 / b_bias=0 / direct=3 / weightb=1 / open_gop=0 / weightp=2 / keyint=210 / keyint_min=21 / scenecut=40 / intra_refresh=0 / rc_lookahead=60 / rc=2pass / mbtree=1 / bitrate=1810 / ratetol=1.0 / qcomp=0.65 / qpmin=0 / qpmax=69 / qpstep=4 / cplxblur=20.0 / qblur=0.5 / ip_ratio=1.25 / aq=1:0.90
Default : Да
Forced : Нет
Цветовой диапазон : Limited
Основные цвета : BT.601 PAL
Характеристики трансфера : BT.470 System B, BT.470 System G
Коэффициенты матрицы : BT.601
Statistics Tags Issue : mkvmerge v7.8.0 ('River Man') 32bit built on Mar 27 2015 16:18:02 2017-01-17 19:46:38 / mkvmerge v6.6.0 ('The Edge Of The In Between') built on Dec 1 2013 17:55:00 2017-01-18 00:05:59
FromStats_BitRate : 1809946
FromStats_Duration : 01:31:53.133000000
FromStats_FrameCount : 132183
FromStats_StreamSize : 1247309361
Аудио
Идентификатор : 2
Формат : AC-3
Формат/Информация : Audio Coding 3
Профиль формата : Dolby Digital
Расширение режима : CM (complete main)
Параметр Endianness формата : Big
Идентификатор кодека : A_AC3
Продолжительность : 1 ч. 31 м.
Вид битрейта : Постоянный
Битрейт : 224 Кбит/сек
Каналы : 2 канала
Расположение каналов : Front: L R
Частота : 48,0 КГц
Частота кадров : 31,250 кадров/сек (1536 spf)
Метод сжатия : С потерями
Размер потока : 147 Мбайт (11%)
Язык : English
Default : Да
Forced : Нет
Statistics Tags Issue : mkvmerge v7.8.0 ('River Man') 32bit built on Mar 27 2015 16:18:02 2017-01-17 19:46:38 / mkvmerge v6.6.0 ('The Edge Of The In Between') built on Dec 1 2013 17:55:00 2017-01-18 00:05:59
FromStats_BitRate : 224000
FromStats_Duration : 01:31:53.120000000
FromStats_FrameCount : 172285
FromStats_StreamSize : 154367360
Текст
Идентификатор : 3
Формат : UTF-8
Идентификатор кодека : S_TEXT/UTF8
Идентификатор кодека/Информация : UTF-8 Plain Text
Заголовок : Русский (kosmoaelita-Severnyj) srt - перевод на слух с англ.
Язык : Russian
Default : Да
Forced : Нет
Меню
00:11:11.170 : en:00:11:11.170
00:24:36.575 : en:00:24:36.575
00:29:11.550 : en:00:29:11.550
00:35:26.625 : en:00:35:26.625
00:39:58.796 : en:00:39:58.796
00:49:40.178 : en:00:49:40.178
00:58:58.334 : en:00:58:58.334
01:06:03.559 : en:01:06:03.559
01:13:58.734 : en:01:13:58.734
01:24:58.594 : en:01:24:58.594
01:28:41.616 : en:01:28:41.616
01:31:53.141 : en:01:31:53.141

Пример субтитров

1
00:00:03,731 --> 00:00:08,670
Релиз
www.kosmoaelita.com
2
00:00:36,731 --> 00:00:40,670
Доброе утро. Говорит информационное
бюро Центрального Управления.
3
00:00:40,720 --> 00:00:45,339
Всем действующим патрулям проследовать
в демилитаризованную зону.
4
00:00:45,548 --> 00:00:50,930
Доложить о незарегистрированных гражданах,
оценить обстановку и доложить.
5
00:02:29,175 --> 00:02:33,486
Здравствуйте, подтверждено наличие
незарегистрированных граждан.
6
00:02:33,487 --> 00:02:36,006
Вооружены стрелковым оружием.
7
00:02:36,056 --> 00:02:37,343
Выходим.
8
00:03:12,461 --> 00:03:15,884
Давайте, убираемся к чёрту!
Ну же, быстрее, бежим!
9
00:03:15,934 --> 00:03:20,140
Уходим, уходим. Убираемся отсюда!
Бежим!
10
00:05:58,871 --> 00:06:02,506
ПОСЛЕДСТВИЯ
(Aftershock, 1990г)
11
00:08:23,147 --> 00:08:24,798
Доброе утро.
12
00:08:24,848 --> 00:08:29,180
Доброе утро. Говорит информационное
бюро Центрального Управления.
13
00:08:29,230 --> 00:08:34,408
Храните оружие согласно правилам.
14
00:08:34,653 --> 00:08:38,190
Чистое оружие - безопасное оружие.
15
00:08:39,046 --> 00:08:41,360
Субъект отказывается отвечать.
--------------------------
512
01:26:22,039 --> 01:26:23,810
Мне нужна только девчонка.
513
01:26:23,930 --> 01:26:28,080
Я обещаю тебе, её не отправят
в исследовательскую лабораторию.
514
01:26:29,111 --> 01:26:32,120
Она мне больше пригодится живой.
515
01:26:52,261 --> 01:26:55,675
Идём, быстрее!..
516
01:28:53,261 --> 01:28:59,675
Перевод увидел свет благодаря
sasha20072007, sfiction, $Shorox
517
01:29:02,261 --> 01:29:08,675
Перевод на слух с англ. и субтитры: Severnyj
Ред. sasha20072007
январь, 2013 г.

Скринлист

cd Рип дополнительно залит на ОБЛАКО cd2


Last edited by admin on 2013-01-12 06:58; edited 2 times in total
[Profile] [PM]

Guest

Gender: Unknown

Post 12-Jan-2013 06:31 (after 4 hours)

[Quote]

Спасибо.)
 
Quick Reply

Name:

            
Heads necessary to send messages to enable JavaScript
Display posts:    
Reply to topic

Current time is: 13-Dec 02:49

All times are UTC + 3



You cannot post new topics in this forum
You can reply to topics in this forum
You cannot edit your posts in this forum
You cannot delete your posts in this forum
You cannot vote in polls in this forum
You cannot attach files in this forum
You cannot download files in this forum