Мертвый огонь (ТВ) / Dead Fire (Роберт Ли / Robert Lee) [1997 г., фантастика, боевик, DVDRip] ПД

Reply to topic
 
Author Message

Guest ®

Gender: Unknown

Post 10-Jan-2013 15:00

[Quote]

Мертвый огонь (ТВ) / Dead Fire
Год выпуска: 1997
Страна: Канада / Чехия, Do Or Die Pictures, North American Pictures, North American Releasing
Жанр: фантастика, боевик
Продолжительность: 01:39:38
Перевод: Профессиональный (двухголосый)
Режиссер: Роберт Ли / Robert Lee
В ролях: Колин Каннингэм, Моника Шнарре, Мэтт Фревер, С. Томас Хауэлл, Рэйчел Хейярд, Люси Жедницкова, Герард Вилан, Роберт Расселл, Джим Торберн, Милан Гаргула
Описание: "Гигантская космическая станция несется по орбите вокруг давно обезлюдевшей Земли. Небольшая группа ученых, живущих на спутнике, пытается возродить человеческую расу с помощью криогенных технологий. Но даже в такой отчаянной ситуации находятся люди, готовые пожертвовать будущим человечества ради своих преступных интересов…"
Доп. информация: Продюсер фильма - Ллойд Симандл, так что лёгкая обнажёнка и учёные-блондинки в наличии.
Звук взят с рутрэкера и приклеен к ДВД-рипу с синемагеддона, поскольку на рутрэкере картинка крайне плохая.
Качество: DVDRip
Формат: MKV
Видео: Xvid, 640x464, 23.976fps, 1513kbps
Аудио 1: Русский ПД (МР3, 2 ch, 128 Кбит/с)
Аудио 2: Английский (AC3, 6 ch, 384 Кбит/с)
Субтитры : Испанские


Релиз

Дополнительно

слоган «The Future Of Mankind Is History»
Also Known As (AKA)
Le vaisseau de l'enfer Canada (French title) / France
2064 Dead Fire France (DVD box title)
Dead Fire France (DVD title)
I exegersi Greece (video title)
Lángoló űr Hungary
USS Legacy Germany

MediaInfo

Общее
Уникальный идентификатор : 232606050795153323541339009555490353886 (0xAEFE4BBCA47398A2BA3798CBD5AB32DE)
Полное имя : F:\Dead Fire 1997.XviD.DVDRip.Rus.mkv
Формат : Matroska
Версия формата : Version 4 / Version 2
Размер файла : 1,44 Гбайт
Продолжительность : 1 ч. 39 м.
Общий поток : 2066 Кбит/сек
Название фильма : Мертвый огонь (ТВ) / Dead Fire 1997
Дата кодирования : UTC 2015-12-09 08:03:23
Программа кодирования : mkvmerge v6.6.0 ('The Edge Of The In Between') built on Dec 1 2013 17:55:00
Библиотека кодирования : libebml v1.3.0 + libmatroska v1.4.1
Видео
Идентификатор : 1
Формат : MPEG-4 Visual
Профиль формата : Advanced Simple@L5
Параметр BVOP формата : 1
Параметр QPel формата : Нет
Параметр GMC формата : Без точки перехода
Параметр матрицы формата : Default (MPEG)
Режим смешивания : Сжатый битовый поток
Идентификатор кодека : V_MS/VFW/FOURCC / XVID
Идентификатор кодека/Подсказка : XviD
Продолжительность : 1 ч. 39 м.
Битрейт : 1513 Кбит/сек
Ширина : 640 пикселей
Высота : 464 пикселя
Соотношение сторон : 1,379
Режим частоты кадров : Постоянный
Частота кадров : 23,976 (24000/1001) кадра/сек
Цветовое пространство : YUV
Субдискретизация насыщенности : 4:2:0
Битовая глубина : 8 бит
Тип развёртки : Прогрессивная
Метод сжатия : С потерями
Бит/(Пиксели*Кадры) : 0.212
Размер потока : 1,05 Гбайт (73%)
Библиотека кодирования : XviD 1.2.1 (UTC 2008-12-04)
Default : Да
Forced : Нет
Аудио #1
Идентификатор : 2
Формат : MPEG Audio
Версия формата : Version 1
Профиль формата : Layer 3
Режим : Joint stereo
Расширение режима : MS Stereo
Идентификатор кодека : A_MPEG/L3
Идентификатор кодека/Подсказка : MP3
Продолжительность : 1 ч. 39 м.
Вид битрейта : Постоянный
Битрейт : 128 Кбит/сек
Каналы : 2 канала
Частота : 48,0 КГц
Метод сжатия : С потерями
Размер потока : 91,2 Мбайт (6%)
Заголовок : Русский ПД
Язык : Russian
Default : Да
Forced : Нет
Аудио #2
Идентификатор : 3
Формат : AC-3
Формат/Информация : Audio Coding 3
Расширение режима : CM (complete main)
Параметр Endianness формата : Big
Идентификатор кодека : A_AC3
Продолжительность : 1 ч. 39 м.
Вид битрейта : Постоянный
Битрейт : 384 Кбит/сек
Каналы : 6 каналов
Расположение каналов : Front: L C R, Side: L R, LFE
Частота : 48,0 КГц
Частота кадров : 31,250 кадров/сек (1536 spf)
Метод сжатия : С потерями
Размер потока : 274 Мбайт (19%)
Язык : English
Default : Нет
Forced : Нет
Текст
Идентификатор : 4
Формат : VobSub
Режим смешивания : zlib
Идентификатор кодека : S_VOBSUB
Идентификатор кодека/Информация : Picture based subtitle format used on DVDs
Язык : Spanish
Default : Нет
Forced : Нет

Скриншоты
















Скринлист

cd Рип дополнительно залит на ОБЛАКО cd2
 

Guest ®

Gender: Unknown

Post 18-Oct-2014 04:04 (after 1 year 9 months)

[Quote]

http://www.movie-blog.org/2014/10/03/uss-legacy-dea...d-by-illuminati/
 

admin

Gender: Male

Longevity: 7 years 2 months

Posts: 4721

Post 19-Oct-2014 09:38 (after 1 day 5 hours)

[Quote]

Та же версия, что и везде, только в PALe
[Profile] [PM]

Guest ®

Gender: Unknown

Post 09-Dec-2015 10:35 (after 1 year 1 month)

[Quote]

Дешевенький боевичек с элементами фантастического антуража..
Скорее всего,режиссер ставил не на сюжет (высосанный из пальца ) bm пулемет , а на симпатичных актрисочек,
которые,видимо, впервые снялись не в жанре "Только для взрослых". ag
 
Quick Reply

Name:

            
Heads necessary to send messages to enable JavaScript
Display posts:    
Reply to topic

Current time is: 20-Nov 07:47

All times are UTC + 3



You cannot post new topics in this forum
You can reply to topics in this forum
You cannot edit your posts in this forum
You cannot delete your posts in this forum
You cannot vote in polls in this forum
You cannot attach files in this forum
You cannot download files in this forum