Пришелец из космоса и король Артур / Приключения астронавтов при дворе короля Артура / Неопознанный летающий чудак / The Spaceman and King Arthur / Unidentified Flying Oddball / A Spaceman in King Arthur's Court (Русс Мейберри / Russ Mayberry) [1979 г., Фантастика, Приключения, WEBRip-1080p] ЛО (Max Nabokov), СТ (Max Nabokov)

Reply to topic
 
Author Message

zzzilia ®

Gender: Unknown

Post 05-Jan-2013 06:39

[Quote]

Пришелец из космоса и король Артур / Приключения астронавтов при дворе короля Артура / Неопознанный летающий чудак / The Spaceman and King Arthur / Unidentified Flying Oddball / A Spaceman in King Arthur's Court
Год выпуска: 1979
Страна: США, Walt Disney Pictures
Жанр: фантастика, фэнтези, комедия, приключения, семейный
Продолжительность: 01:33:13
Перевод: Любительский (одноголосый, Max Nabokov)
Режиссер: Русс Мейберри / Russ Mayberry
В ролях:
Dennis Dugan ... Tom Trimble
Jim Dale ... Sir Mordred
Ron Moody ... Merlin
Kenneth More ... King Arthur
John Le Mesurier ... Sir Gawain (as John le Mesurier)
Rodney Bewes ... Clarence
Sheila White ... Alisande
Robert Beatty ... Senator Milburn
Cyril Shaps ... Dr. Zimmerman
Kevin Brennan ... Winston
Ewen Solon ... Watkins
Pat Roach ... Oaf
Reg Lye ... Prisoner
Описание: Американцы планируют запустить сверхсветовой космический корабль «Stardust» к другой звездной системе. Изобретатель Том Тримбл создает робота по имени Гермес и придаёт ему свою внешность, чтобы он летел вместо людей. Но во время запуска ракеты происходит накладка, в результате которой на борту космического корабля оказываются и Гермес и Том.
Вместо траектории полета к другой звездной системе, "Стардаст" попадает в другое временное измерение и возвращается на Землю. Он приземляется в Корнуолле в средних веках, где его берут в плен и ведут к Камелоту. Но во дворе короля Артура Тому удается продемонстрировать все преимущества технического прогресса и сохранить себе жизнь. Теперь он должен спасти королевство от хитросплетений интриг злодея сэра Мордреда и обманчивого мага Мерлина

Качество: WEBRip-1080p
Формат: MKV
Видео: x264, 9500 кбит/с, 1800x1080, 23,976 к/с
Аудио 1: Русский Max Nabokov (AC3, 2 ch, 224 Кбит/с)
Аудио 2: Английский (AC3, 2 ch, 224 Кбит/с)
Субтитры : Русские (Max Nabokov), английские, испанские
Работа над релизом:
Видеоряд найден на rarbg2018.org
Синхронизация русской дорожки и ред. субтитров - kosmoaelita



Пример русского перевода

Дополнительно

слоган «A sixth century space adventure!»
Also Known As (AKA)
Also Known As (AKA)
(original title) The Spaceman and King Arthur
Brazil (TV title) Um Astronauta na Corte do Rei Arthur
Brazil O Estranho Aliado do Rei Arthur
France Un cosmonaute chez le roi Arthur
Greece (transliterated title) Enas astronaftis stin avli tou vasilia Arthourou
Hungary Artúr király és az űrhajós
Italy Un astronauta alla tavola rotonda
Poland Przypadkowa espedycja
Poland Przypadkowa ekspedycja
Portugal Um Astronauta na Corte do Rei Artur
Romania Astronautul si Regele Arthur
Soviet Union (Russian title) Пришелец из космоса и король Артур
Spain Un astronauta en la corte del rey Arturo
Sweden En rymdman vid riddarnas bord
UK The Spaceman and King Arthur
USA (reissue title) A Spaceman in King Arthur's Court
USA Unidentified Flying Oddball
Uruguay (original subtitled version) Un astronauta en la corte del rey Arturo
West Germany König Artus und der Astronaut
World-wide (English title) (new title) The Spaceman and King Arthur
World-wide (English title) (new title) Unidentified Flying Oddball
World-wide (English title) (new title) A Spaceman in King Arthur's Court

Отзывы

"Сверхзвуковой космический корабль" - это, я скажу вам, вещь!
"Повернуть корабль вокруг земной орбиты," - тоже не всяк ведь сможет . . .
----------------------------------------------------
У врачей основное правило - не навреди. В данном случае применимо - не снимай. То, что снимавший этот фильм дегенерат, не вызывает ни малейших сомнений. Кино даже не для детей, а для умственно отсталых детей.
--------------------------------------
ето несомненно шедеврь. Возбудил фантазию моем детсве. Я не считаю себя отсталым посколько мои ум мне сейчас денги зарабатываеть
-------------------------------------
Читал книжку. Пожалуй стоит посмотреть на сие творчество.
--------------------------
Книга Марка Твена - просто чумовая
---------------------------
Что неужели ли никто не смотрел.нуправильно нечего время терять.ни кино а детский сад.но качество картинки хорошее-пленка как никак.
----------------------------
напомнило "Янки при дворе Короля Артура"...

Рецензия

MediaInfo

Общее
Уникальный идентификатор : 199789169829596653171964932569580512449 (0x964DFE95D792A2A5987A16254BF924C1)
Полное имя : N:\BD-DISC\Unidentified.Flying.Oddball.1979.720p.AMZN.WEBRip.DDP2.0.x264-ABM\The Spaceman and King Arthur 1979.x264.1080p.WEBRip.Rus.kosmoaelita.mkv
Формат : Matroska
Версия формата : Version 4
Размер файла : 6,48 Гбайт
Продолжительность : 1 ч. 33 м.
Общий поток : 9958 Кбит/сек
Название фильма : Пришелец из космоса и король Артур / Неопознаный летающий чудак / The Spaceman and King Arthur / Unidentified Flying Oddball / 1979 / kosmoaelita
Дата кодирования : UTC 2020-01-06 06:05:11
Программа кодирования : mkvmerge v6.6.0 ('The Edge Of The In Between') built on Dec 1 2013 17:55:00
Библиотека кодирования : libebml v1.3.0 + libmatroska v1.4.1
Attachments : poster.jpg
Видео
Идентификатор : 1
Формат : AVC
Формат/Информация : Advanced Video Codec
Профиль формата : High@L4.1
Настройки формата : CABAC / 4 Ref Frames
Параметр CABAC формата : Да
Параметр RefFrames формата : 4 кадра
Идентификатор кодека : V_MPEG4/ISO/AVC
Продолжительность : 1 ч. 33 м.
Битрейт : 9500 Кбит/сек
Ширина : 1800 пикселей
Высота : 1080 пикселей
Соотношение сторон : 5:3
Режим частоты кадров : Постоянный
Частота кадров : 23,976 кадра/сек
Цветовое пространство : YUV
Субдискретизация насыщенности : 4:2:0
Битовая глубина : 8 бит
Тип развёртки : Прогрессивная
Бит/(Пиксели*Кадры) : 0.204
Размер потока : 6,06 Гбайт (94%)
Заголовок : http://kosmoaelita.com/viewtopic.php?t=481
Библиотека кодирования : x264 core 130 r2273 b3065e6
Настройки программы : cabac=1 / ref=4 / deblock=1:-2:-2 / analyse=0x3:0x131 / me=umh / subme=10 / psy=1 / psy_rd=0.99:0.14 / mixed_ref=1 / me_range=32 / chroma_me=1 / trellis=2 / 8x8dct=1 / cqm=0 / deadzone=21,11 / fast_pskip=1 / chroma_qp_offset=-3 / threads=6 / lookahead_threads=1 / sliced_threads=0 / nr=0 / decimate=1 / interlaced=0 / bluray_compat=0 / constrained_intra=0 / bframes=8 / b_pyramid=2 / b_adapt=2 / b_bias=0 / direct=3 / weightb=1 / open_gop=0 / weightp=2 / keyint=210 / keyint_min=21 / scenecut=40 / intra_refresh=0 / rc_lookahead=80 / rc=2pass / mbtree=1 / bitrate=9500 / ratetol=1.0 / qcomp=0.65 / qpmin=0 / qpmax=69 / qpstep=4 / cplxblur=20.0 / qblur=0.5 / ip_ratio=1.25 / aq=1:0.90
Язык : English
Default : Да
Forced : Нет
Цветовой диапазон : Limited
Основные цвета : BT.709
Характеристики трансфера : BT.709
Коэффициенты матрицы : BT.709
Аудио #1
Идентификатор : 2
Формат : AC-3
Формат/Информация : Audio Coding 3
Коммерческое название : Dolby Digital
Идентификатор кодека : A_AC3
Продолжительность : 1 ч. 33 м.
Вид битрейта : Постоянный
Битрейт : 224 Кбит/сек
Каналы : 2 канала
ChannelLayout : L R
Частота : 48,0 КГц
Частота кадров : 31,250 кадров/сек (1536 SPF)
Метод сжатия : С потерями
Размер потока : 149 Мбайт (2%)
Заголовок : Русский ЛО (Max Nabokov)
Язык : Russian
ServiceKind/String : Complete Main
Default : Да
Forced : Нет
Аудио #2
Идентификатор : 3
Формат : AC-3
Формат/Информация : Audio Coding 3
Коммерческое название : Dolby Digital
Идентификатор кодека : A_AC3
Продолжительность : 1 ч. 33 м.
Вид битрейта : Постоянный
Битрейт : 224 Кбит/сек
Каналы : 2 канала
ChannelLayout : L R
Частота : 48,0 КГц
Частота кадров : 31,250 кадров/сек (1536 SPF)
Метод сжатия : С потерями
Размер потока : 149 Мбайт (2%)
Язык : English
ServiceKind/String : Complete Main
Default : Нет
Forced : Нет
Текст #1
Идентификатор : 4
Формат : UTF-8
Идентификатор кодека : S_TEXT/UTF8
Идентификатор кодека/Информация : UTF-8 Plain Text
Заголовок : Русский (Max Nabokov) .srt
Язык : Russian
Default : Да
Forced : Нет
Текст #2
Идентификатор : 5
Формат : PGS
Режим смешивания : zlib
Идентификатор кодека : S_HDMV/PGS
Идентификатор кодека/Информация : Picture based subtitle format used on BDs/HD-DVDs
Заголовок : Русский (Max Nabokov) .PGS - перевод с англ. субтитров
Язык : Russian
Default : Нет
Forced : Нет
Текст #3
Идентификатор : 6
Формат : UTF-8
Идентификатор кодека : S_TEXT/UTF8
Идентификатор кодека/Информация : UTF-8 Plain Text
Язык : English
Default : Нет
Forced : Нет
Текст #4
Идентификатор : 7
Формат : UTF-8
Идентификатор кодека : S_TEXT/UTF8
Идентификатор кодека/Информация : UTF-8 Plain Text
Язык : Spanish
Default : Нет
Forced : Нет
Меню
00:00:00.000 : en:Stardust 1
00:03:35.000 : en:Opening Credits
00:06:00.000 : en:Hermes
00:08:14.000 : en:Tom Blasts Off
00:13:09.000 : en:Medieval England
00:19:01.000 : en:King Arthur's Court
00:29:06.000 : en:The Burning
00:35:53.000 : en:Duel With Mordred
00:41:43.000 : en:Field of Honor Joust
00:57:52.000 : en:Preparing For Battle
01:10:58.000 : en:The Battle At Dawn
01:27:51.000 : en:Departure

Скриншоты





















Скринлист

cd Рип дополнительно залит на mail.ru cd2


Last edited by zzzilia on 2013-01-08 11:25; edited 2 times in total
 

kosmoaelita

Gender: Male

Longevity: 7 years 9 months

Posts: 1540

Post 05-Jan-2020 16:35 (after 7 years)

[Quote]

Замена на WEBRip-1080p
[Profile] [PM]
Display posts:    
Reply to topic

Current time is: 03-Jun 06:03

All times are UTC + 3



You cannot post new topics in this forum
You cannot reply to topics in this forum
You cannot edit your posts in this forum
You cannot delete your posts in this forum
You cannot vote in polls in this forum
You cannot attach files in this forum
You cannot download files in this forum