Пришелец из космоса и король Артур / Неопознаный летающий чудак / The Spaceman and King Arthur / Unidentified Flying Oddball (Русс Мейберри / Russ Mayberry) [1979 г., Фантастика, Приключения, DVDRip] ЛО (Max Nabokov), СТ

Reply to topic
 
Author Message

zzzilia ®

Gender: Unknown

Post 05-Jan-2013 06:39

[Quote]

Пришелец из космоса и король Артур / Неопознаный летающий чудак / The Spaceman and King Arthur / Unidentified Flying Oddball
Год выпуска: 1979
Страна: США
Жанр: фантастика, фэнтези, комедия, приключения, семейный
Продолжительность: 01:29:21
Перевод: Любительский (одноголосый, Max Nabokov)
Режиссер: Русс Мейберри / Russ Mayberry
В ролях: Деннис Дуган, Джим Дэйл, Рон Муди, Кеннет Мор, Джон Ле Мезюрье, Родни Бьюэз, Шила Уайт, Роберт Битти, Сирил Шэпс, Кевин Бреннан
Описание: Американцы планируют запустить сверхзвуковой космический корабль «Stardust» в открытый космос. Изобретатель Том Тримбл создает робота по имени Гермес и придаёт ему свою внешность, чтобы он летел вместо людей. Но во время запуска ракеты происходит накладка, в результате которой на борту космического корабля оказываются и Гермес и Том.
Том пытается повернуть корабль вокруг земной орбиты, но вместо этого попадает в другое временное измерение. Он приземляется в Корнуолле в средних веках, где его берут в плен и ведут к Камелоту. Но во дворе короля Артура Тому удается продемонстрировать все преимущества технического прогресса и сохранить себе жизнь. Теперь он должен спасти королевство от хитросплетений интриг злодея сэра Мордреда и обманчивого мага Мерлина

Качество: DVDRip
Формат: mkv
Видео: x264, 2065 кбит/с, 720x384, 25 к/с
Аудио 1: Русский Max Nabokov (AC3, 2 ch, 192 Кбит/с)
Аудио 2: Английский (AC3, 2 ch, 192 Кбит/с)
Субтитры : Русские (Max Nabokov), английские, испанские


Релиз

Дополнительно

слоган «A sixth century space adventure!»
Also Known As (AKA)
A Spaceman in King Arthur's Court USA (reissue title)
En rymdman vid riddarnas bord Sweden
Enas astronaftis stin avli tou vasilia Arthourou Greece (transliterated ISO-LATIN-1 title)
König Artus und der Astronaut West Germany
UFO (undefined)
Um Astronauta na Corte do Rei Artur Portugal
Un astronauta alla tavola rotonda Italy
Un astronauta en la corte del rey Arturo Spain
Un cosmonaute chez le roi Arthur France (imdb display title)
Unidentified Flying Oddball USA

Рецензия

MediaInfo

Общее
Уникальный идентификатор : 228841289713468389706058438433860396777 (0xAC293AAF48F3A752A04EA629D262A6E9)
Полное имя : F:\The Spaceman and King Arthur 1979.x264.DVDRip.mkv
Формат : Matroska
Версия формата : Version 4 / Version 2
Размер файла : 1,49 Гбайт
Продолжительность : 1 ч. 29 м.
Общий поток : 2388 Кбит/сек
Дата кодирования : UTC 2013-01-25 02:43:08
Программа кодирования : mkvmerge v6.0.0 ('Coming Up For Air') built on Jan 20 2013 09:52:00
Библиотека кодирования : libebml v1.3.0 + libmatroska v1.4.0
Видео
Идентификатор : 1
Формат : AVC
Формат/Информация : Advanced Video Codec
Профиль формата : High@L5.1
Параметр CABAC формата : Да
Параметр ReFrames формата : 3 кадра
Идентификатор кодека : V_MPEG4/ISO/AVC
Продолжительность : 1 ч. 29 м.
Битрейт : 2065 Кбит/сек
Ширина : 720 пикселей
Высота : 384 пикселя
Соотношение сторон : 1,85:1
Режим частоты кадров : Постоянный
Частота кадров : 25,000 кадров/сек
Цветовое пространство : YUV
Субдискретизация насыщенности : 4:2:0
Битовая глубина : 8 бит
Тип развёртки : Прогрессивная
Бит/(Пиксели*Кадры) : 0.299
Размер потока : 1,26 Гбайт (85%)
Библиотека кодирования : x264 core 58 svn-736bm
Настройки программы : cabac=1 / ref=1 / deblock=1:-2:-1 / analyse=0x3:0x113 / me=hex / subme=5 / brdo=0 / mixed_ref=0 / me_range=8 / chroma_me=1 / trellis=0 / 8x8dct=1 / cqm=0 / deadzone=21,11 / chroma_qp_offset=0 / threads=2 / nr=0 / decimate=1 / mbaff=0 / bframes=16 / b_pyramid=1 / b_adapt=1 / b_bias=0 / direct=3 / wpredb=1 / bime=0 / keyint=250 / keyint_min=25 / scenecut=40(pre) / rc=2pass / bitrate=2065 / ratetol=1.0 / rceq='blurCplx^(1-qComp)' / qcomp=0.60 / qpmin=10 / qpmax=51 / qpstep=4 / cplxblur=20.0 / qblur=0.5 / ip_ratio=1.40 / pb_ratio=1.30
Default : Да
Forced : Нет
Аудио #1
Идентификатор : 2
Формат : MPEG Audio
Версия формата : Version 1
Профиль формата : Layer 3
Идентификатор кодека : A_MPEG/L3
Идентификатор кодека/Подсказка : MP3
Продолжительность : 1 ч. 29 м.
Вид битрейта : Постоянный
Битрейт : 128 Кбит/сек
Каналы : 2 канала
Частота : 44,1 КГц
Метод сжатия : С потерями
Размер потока : 81,8 Мбайт (5%)
Заголовок : Русский ЛО (Max Nabokov)
Библиотека кодирования : LAME3.98r
Настройки программы : -m s -V 4 -q 3 -lowpass 17 -b 128
Язык : Russian
Default : Да
Forced : Да
Аудио #2
Идентификатор : 3
Формат : AC-3
Формат/Информация : Audio Coding 3
Расширение режима : CM (complete main)
Параметр Endianness формата : Big
Идентификатор кодека : A_AC3
Продолжительность : 1 ч. 29 м.
Вид битрейта : Постоянный
Битрейт : 192 Кбит/сек
Каналы : 2 канала
Расположение каналов : Front: L R
Частота : 48,0 КГц
Битовая глубина : 16 бит
Метод сжатия : С потерями
Размер потока : 123 Мбайт (8%)
Язык : English
Default : Нет
Forced : Нет
Текст #1
Идентификатор : 4
Формат : UTF-8
Идентификатор кодека : S_TEXT/UTF8
Идентификатор кодека/Информация : UTF-8 Plain Text
Язык : Russian
Default : Да
Forced : Нет
Текст #2
Идентификатор : 5
Формат : UTF-8
Идентификатор кодека : S_TEXT/UTF8
Идентификатор кодека/Информация : UTF-8 Plain Text
Язык : English
Default : Нет
Forced : Нет
Текст #3
Идентификатор : 6
Формат : UTF-8
Идентификатор кодека : S_TEXT/UTF8
Идентификатор кодека/Информация : UTF-8 Plain Text
Язык : Spanish
Default : Нет
Forced : Нет

Скриншоты



cd Рип дополнительно залит на mail.ru cd2


Last edited by zzzilia on 2013-01-08 11:25; edited 2 times in total
 

Guest ®

Gender: Unknown

Post 05-Jan-2013 07:18 (after 39 minutes)

[Quote]

С первой Вас раздачей. Спасибо!
 

zzzilia ®

Gender: Unknown

Post 05-Jan-2013 07:28 (after 9 minutes)

[Quote]

смайлик+ Не подскажите, как тут скачивать релизы, вроде такого к примеру. Спасибо.
http://kosmoaelita.com/viewtopic.php?t=480
 

Guest ®

Gender: Unknown

Post 05-Jan-2013 07:30 (after 2 minutes)

[Quote]

http://kosmoaelita.com/viewtopic.php?t=418
 

admin

Gender: Male

Longevity: 7 years 2 months

Posts: 4721

Post 05-Jan-2013 13:38 (after 6 hours)

[Quote]

Чуть позже на avc заменю
[Profile] [PM]

Guest ®

Gender: Unknown

Post 08-Jan-2013 12:01 (after 2 days 22 hours)

[Quote]

Торрент восстановлен
 

admin

Gender: Male

Longevity: 7 years 2 months

Posts: 4721

Post 25-Jan-2013 06:00 (after 16 days)

[Quote]

Перезалито в лучшем качестве
[Profile] [PM]
Quick Reply

Name:

            
Heads necessary to send messages to enable JavaScript
Display posts:    
Reply to topic

Current time is: 21-Nov 11:24

All times are UTC + 3



You cannot post new topics in this forum
You can reply to topics in this forum
You cannot edit your posts in this forum
You cannot delete your posts in this forum
You cannot vote in polls in this forum
You cannot attach files in this forum
You cannot download files in this forum