Побег роботов / Heartbeeps (Аллан Аркуш / Allan Arkush) [1981 г., Фантастика, Комедия, WEBDL-1080p] ПД ()

Reply to topic
DL-List and Torrent activity
Size:  1.37 GB   |    Registered:  6 years 10 months   |    Completed:  6 times

Seeder not seen: 4 years 8 months

 
   
 
 
 
Author Message

anvic ®

Gender: Male

Longevity: 7 years 1 month

Posts: 62

Post 01-Jan-2013 19:53

[Quote]

Побег роботов / Heartbeeps

Год выпуска: 1981
Страна: США
Жанр: Фантастика, Комедия
Продолжительность: 01:17:35
Перевод: Профессиональный (двухголосый)
Режиссер: Аллан Аркуш / Allan Arkush
В ролях: Энди Кауфман, Бернадетт Питерс, Рэнди Куэйд, Кеннет МакМиллан, Мелани Мейрон, Кристофер Гест, Ричард Б. Шалл, Дик Миллер, Кэтлин Фримен, Мэри Воронов
Описание: На стеллаже под номером «C-7» ремонтной мастерской знакомятся два робота. Она, робот-хостесс, модель Акваком 89045, и он, робот-камердинер, модель Вэлкорм 17485.
И случается невероятное: в холодном и рациональном будущем две машины начинают испытывать романтическое чувство, абсолютно не предусмотренное их конструкторами. В компании с поломанным роботом-комиком Аква и Вэл совершают побег на волю, чтобы поближе познакомиться с миром людей!

Качество видео: WEBDL-1080p
Формат: MKV
Видео: x264, 13700 кбит/с, 1920x816, 23.976 к/с
Аудио 1: Русский ПД (AC3, 2 ch, 224 Кбит/с)
Аудио 2: Английский (AC3, 2 ch, 224 Кбит/с)
Субтитры : Английские
Работа над релизом:
Видеоряд найден на синемагеддоне.
Синхронизация русской дорожки - kosmoaelita



Дополнительно

слоган «Meet a modern nuclear family unlike any other.»
бюджет $10 000 000
Also Known As (AKA)
Amor electrónico Argentina / Peru
Batidas de Coração Portugal
Fábrica de Robô Brazil (TV title)
Herzquietschen West Germany
Ruostumatonta rakkautta Finland

Рецензия

Она — робот-хостесс, модель Акваком 89045, он — робот-камердинер, модель Вэлкорм 17485. Оба они оказываются на одном стеллаже в фабрике роботов, ожидая, когда их починят. Но тяга к приключениям бывает даже у роботов. И вот, прихватив за компанию еще робота-комика, они решают отправиться изучать окружающий мир.
Неудивительно, что подобный фильм вышел именно в начале 80-х, когда начинался новый виток в развитии электронных технологий. Очевидно, создатели считали, что история о роботах привлечет зрителей, но фильм в итоге в прокате пошел не очень удачно.
Несостоятельность сюжета, когда в фильме ничего не происходит, но при этом логических огрехов хватит на целую диссертацию, а так же глупые диалоги и скуднейшая актерская игра, целью которой является изображение роботов — вот что топит этот фильм. Роботы бродят, болтают всякую чушь, а фильм все идет и идет… благо, что всего 79 минут. Кино из разряда — «что смотрел, что радио слушал». Странно, что многие критики нашли его раздражительным. Наоборот сейчас эта посредственная безделушка смотрится с каким-то шармом, присущим фильмам 80-х. Даже несуразная романтическая линия в паре эпизодов может умилить. Но все равно фильм не вырывается за рамки среднего кино, которое сотрется из памяти очень быстро.
Первую главную роль в фильме сыграл известный комик Энди Кауфман (тот самый, о котором снял фильм Милош Форман — «Человек на Луне»). Кауфман так рвался на киноэкраны, что продюсеры решили позволить ему сначала «прощупать почву», заодно проверить сможет ли он стать «локомотивом» фильма и обеспечить фильму успех. Как оказалось не смог. Да и сам актер этого не скрывал, считая фильм ужасно плохим, на шоу Девида Леттермана он в шутку пообещал вернуть каждому зрителю деньги, потраченные ими за билеты.
Так же фильм стал первым номинантом на премию «Оскар» в категории «Лучший грим». По итогам 1981 года Американская Киноакадемия решила учредить специальную номинацию для специалистов по гриму. «Побег роботов», где созданием грима роботов занимался Стэн Уинстон, соперничал с «Американским оборотнем в Лондоне», где в свою очередь за мэйк-ап отвечал Рик Бэйкер. Настоящая битва титанов развернулась за первую в истории Академии премию для гримеров, победу в которой одержал поистине более сложный в техническом плане грим Бэйкера

MediaInfo

Общее
Уникальный идентификатор : 185881891240688931856676324113499179398 (0x8BD78CCFD02C570EB87FEE83F0664986)
Полное имя : N:\BD-DISC\Heartbeeps 1981.x264.WEBDL.1080p.Rus.kosmoaelita.mkv
Формат : Matroska
Версия формата : Version 4
Размер файла : 7,83 Гбайт
Продолжительность : 1 ч. 17 м.
Режим общего битрейта : Переменный
Общий поток : 14,5 Мбит/сек
Название фильма : Побег роботов / Heartbeeps / 1981 / kosmoaelita
Дата кодирования : UTC 2019-09-02 21:26:05
Программа кодирования : mkvmerge v6.6.0 ('The Edge Of The In Between') built on Dec 1 2013 17:55:00
Библиотека кодирования : libebml v1.3.0 + libmatroska v1.4.1
Attachments : poster.jpg
Видео
Идентификатор : 1
Формат : AVC
Формат/Информация : Advanced Video Codec
Профиль формата : High@L4
Настройки формата : CABAC / 4 Ref Frames
Параметр CABAC формата : Да
Параметр RefFrames формата : 4 кадра
Идентификатор кодека : V_MPEG4/ISO/AVC
Продолжительность : 1 ч. 17 м.
Вид битрейта : Переменный
Битрейт : 13,7 Мбит/сек
Максимальный битрейт : 15,0 Мбит/сек
Ширина : 1920 пикселей
Высота : 816 пикселей
Соотношение сторон : 2,35:1
Режим частоты кадров : Постоянный
Частота кадров : 23,976 (24000/1001) кадра/сек
Цветовое пространство : YUV
Субдискретизация насыщенности : 4:2:0
Битовая глубина : 8 бит
Тип развёртки : Прогрессивная
Бит/(Пиксели*Кадры) : 0.365
Размер потока : 7,43 Гбайт (95%)
Заголовок : http://kosmoaelita.com/viewtopic.php?t=478
Default : Да
Forced : Нет
Цветовой диапазон : Limited
Основные цвета : BT.709
Характеристики трансфера : BT.709
Коэффициенты матрицы : BT.709
Аудио #1
Идентификатор : 2
Формат : AC-3
Формат/Информация : Audio Coding 3
Коммерческое название : Dolby Digital
Идентификатор кодека : A_AC3
Продолжительность : 1 ч. 17 м.
Вид битрейта : Постоянный
Битрейт : 224 Кбит/сек
Каналы : 2 канала
Channel layout : L R
Частота : 48,0 КГц
Частота кадров : 31,250 кадров/сек (1536 SPF)
Битовая глубина : 16 бит
Метод сжатия : С потерями
Размер потока : 124 Мбайт (2%)
Заголовок : Русский ПД ()
Язык : Russian
ServiceKind/String : Complete Main
Default : Да
Forced : Нет
Аудио #2
Идентификатор : 3
Формат : E-AC-3
Формат/Информация : Enhanced AC-3
Коммерческое название : Dolby Digital Plus
Идентификатор кодека : A_EAC3
Продолжительность : 1 ч. 17 м.
Вид битрейта : Постоянный
Битрейт : 224 Кбит/сек
Каналы : 2 канала
Channel layout : L R
Частота : 48,0 КГц
Частота кадров : 31,250 кадров/сек (1536 SPF)
Метод сжатия : С потерями
Размер потока : 124 Мбайт (2%)
Заголовок : kosmoaelita
Язык : English
ServiceKind/String : Complete Main
Default : Нет
Forced : Нет
Текст
Идентификатор : 4
Формат : UTF-8
Идентификатор кодека : S_TEXT/UTF8
Идентификатор кодека/Информация : UTF-8 Plain Text
Язык : English
Default : Нет
Forced : Нет

Скриншоты










Скринлист

Файл дополнительно залит на ОБЛАКО
Heartbeeps.avi.torrent
Torrent: Registered [ 2013-01-01 19:53 ]

Download .torrent

Download

55 KB

Status: checked
Completed: 6 times
Size: 1.37 GB
 
[Profile] [PM]
Display posts:    
Reply to topic

Current time is: 20-Nov 06:38

All times are UTC + 3



You cannot post new topics in this forum
You cannot reply to topics in this forum
You cannot edit your posts in this forum
You cannot delete your posts in this forum
You cannot vote in polls in this forum
You cannot attach files in this forum
You can download files in this forum