Эмбрион / Зародыш / Embryo (Ральф Нельсон / Ralph Nelson) [1976 г., фантастика, триллер, драма, DVDRip] ПД

Reply to topic
 
Author Message

anvic ®

Gender: Male

Longevity: 7 years 1 month

Posts: 62

Post 01-Jan-2013 16:03

[Quote]

Эмбрион / Зародыш / Embryo

Год выпуска: 1976
Страна: США
Жанр: фантастика, триллер, драма
Продолжительность: 01:39:56
Перевод: Профессиональный (двухголосый)
Режиссер: Ральф Нельсон / Ralph Nelson
В ролях: Рок Хадсон, Барбара Каррера, Дайан Лэдд, Родди МакДауэлл, Энн Шедин, Винсент Баггетта, Джек Колвин, Др. Джойс Бразерс, Дик Уинслоу.
Описание: Пол Холлистон — учёный, доктор. Он был женат, а его жена Николь уже ждала ребёнка. Но с ней произошёл несчастный случай, и она погибла. Вместе с ней погиб и неродившийся ребёнок Пола. А сам Пол остался вдовцом, сейчас он живёт вместе со своим сыном Гордоном и своей двоюродной сестрой Мартой Дуглас.
Со времени гибели своей жены доктор Холлистон занимается генетическими экспериментами, помогает ему в этом его сын Гордон. Доктору удаётся добиться успехов в своих опытах — он изобретает препарат, который может ускорить рост эмбриона.
Однажды доктор, возвращаясь домой на своём автомобиле, нечаянно сбивает собаку, перебегающую дорогу. Доктор исследует мёртвую собаку и выясняет, что она беременна. Полу удаётся без повреждений извлечь развивающегося зародыша и начать его искусственное выращивание, применяя свой препарат — буквально через несколько дней вырастает взрослая собака.
Доктор решает продолжить эксперименты уже на людях. Для этого с помощью своего друга он находит человеческий эмбрион. Он принадлежал одной несовершеннолетней девушке, которая покончила с собой. Эксперимент проходит успешно — из эмбриона развивается девушка. Пол называет её Викторией.
Итак, Виктории уже 22 года, и на этом возрасте доктор хочет приостановить её развитие. Для этого он прекращает вводить препарат девушке. Но несмотря на отсутствие стимуляции, развитие Виктории продолжается, и она начинает стареть. Ровный ход эксперимента нарушен… …А Виктория становится маньяком-убийцей…


Качество: DVDRip
Формат: AVI
Видео кодек: XviD
Аудио кодек: AC3
Видео: Xvid 704x384 25fps 1498kbps
Аудио: Dolby AC3 48000Hz stereo 192kbps


Релиз

звук взят с релиза Феникс клуб

Дополнительно

рейтинг MPAA рекомендуется присутствие родителей
слоган «From Embryo to woman in 4 and a half weeks.»
Also Known As (AKA)
Alkio Finland
Cenin Turkey (Turkish title)
Created to Kill USA (reissue title)
Die Brut des Bösen West Germany
Ectogen Asia (imdb display title) (English title)
Embrión Venezuela
O Embrião Brazil (imdb display title)
To ergastirio tou diavolou Greece (transliterated ISO-LATIN-1 title)

Рецензия

Ученый доктор Пол Холлистон дождливой ночью случайно сбивает на дороге собаку. Он с удивлением обнаруживает, что собака беременна. Он отвозит ее домой, извлекает зародыш из чрева мертвой самки и ставит на сохранение. Дело в том, что доктор Холлистон уже давно занимается экспериментами генетического характера. Его жена Николь погибла несколькими годами ранее, а ребенка, которым она беременна, не удалось спасти. С тех пор доктор Холлистон живет со своей двоюродной сестрой Мартой и старшим сыном Гордоном, который помогает ему в экспериментах. Доктор Холлистон изобретает экспериментальное лекарство, ускоряющее процесс роста младенца. Он применяет его на зародыше погибшей собаки, и через несколько дней вырастает взрослый доберман. Обрадованный ученый просит своего друга достать ему для эксперимента человеческий зародыш. Через некоторое время у доктора оказывается зародыш покончившей жизнь самоубийством несовершеннолетней девушки. Опыт удается на славу: через несколько дней перед доктором Холлистоном оказывается взрослая девушка, которой он дает имя Виктория. Однако вскоре выясняется, что принимаемое лекарство оказывает побочный эффект: оно продолжает действовать даже после прекращения приема. Поэтому Виктория становится старше не по дням, а по часам. Виктория понимает, что она скоро умрет, поэтому начинает бороться за свою жизнь. Доктор Холлистон в панике пытается найти противоядие, замедляющее взросление. Но вскоре Виктория понимает, что доктор ей не помощник, и превращается в психопатку-убийцу…
Предвестником картины стала тема, затронутая в неоднократно экранизированном немецком произведении «Alraune». В нем рассказывалось история женщины, родившейся из семени повешенного убийцы, которая, выращенная искусственным способом, не имела души и стала аморальным убийцей, соблазняя и убивая мужчин. Академия фантастических фильмов, фэнтази и фильмов ужасов США номинировала картину на свой приз «Сатурн» как лучший фантастический фильм года.

MediaInfo

Format : AVI
Format/Info : Audio Video Interleave
Format profile : OpenDML
File size : 1.19 GiB
Duration : 1h 39mn
Overall bit rate : 1 703 Kbps
Writing application : Lavf54.49.102
Video #0
ID : 0
Format : MPEG-4 Visual
Format profile : Advanced Simple@L5
Format settings, BVOP : No
Format settings, QPel : No
Format settings, GMC : No warppoints
Format settings, Matrix : Default (MPEG)
Codec ID : XVID
Codec ID/Hint : XviD
Duration : 1h 39mn
Bit rate : 1 498 Kbps
Width : 704 pixels
Height : 384 pixels
Display aspect ratio : 1.85:1
Frame rate : 25.000 fps
Color space : YUV
Chroma subsampling : 4:2:0
Bit depth : 8 bits
Scan type : Progressive
Compression mode : Lossy
Bits/(Pixel*Frame) : 0.222
Stream size : 1.05 GiB (88%)
Writing library : XviD 64
Audio #1
ID : 1
Format : AC-3
Format/Info : Audio Coding 3
Mode extension : CM (complete main)
Format settings, Endianness : Big
Codec ID : 2000
Duration : 1h 39mn
Bit rate mode : Constant
Bit rate : 192 Kbps
Channel(s) : 2 channels
Channel positions : Front: L R
Sampling rate : 48.0 KHz
Bit depth : 16 bits
Compression mode : Lossy
Stream size : 137 MiB (11%)
Alignment : Aligned on interleaves
Interleave, duration : 32 ms (0.80 video frame)

Скриншоты







[Profile] [PM]
Quick Reply

Name:

            
Heads necessary to send messages to enable JavaScript
Display posts:    
Reply to topic

Current time is: 20-Nov 06:38

All times are UTC + 3



You cannot post new topics in this forum
You can reply to topics in this forum
You cannot edit your posts in this forum
You cannot delete your posts in this forum
You cannot vote in polls in this forum
You cannot attach files in this forum
You cannot download files in this forum