Рыцарь дракона / Звездный рыцарь / El caballero del dragon / Star knight (Фернандо Коломо / Fernando Colomo) [1985 г., Фантастика, Приключения, Мелодрама, DVDRip] ПО (В. Дохалов)

Reply to topic
DL-List and Torrent activity
Size:  1.04 GB   |    Registered:  6 years 10 months   |    Completed:  15 times

Seeder not seen: 4 years 8 months

 
   
 
 
 
Author Message

anvic ®

Gender: Male

Longevity: 7 years 1 month

Posts: 62

Post 01-Jan-2013 14:34

[Quote]

Рыцарь дракона / Звездный рыцарь / El caballero del dragon / Star knight
Год выпуска: 1985
Страна: Испания
Жанр: Фантастика, Приключения, Мелодрама
Продолжительность: 01:27:39
Перевод: Профессиональный (одноголосый) Вартан Дохалов
Режиссер: Фернандо Коломо / Fernando Colomo
В ролях: Клаус Кински /Klaus Kinski/, Харви Кайтел /Harvey Keitel/, Фернандо Рей /Fernando Rey/, Мария Ламор /Maria Lamor/, Хосе Виво /Jose Vivo/, Джульета Серрано /Julieta Serrano/, Хосе Мария Поу /Jose Maria Pou/, Сантьяго Альварес /Santiago Alvarez/, Мигель Бозе /Miguel Bose/
Описание: Средневековый знахарь с репутацией колдуна, святой отец с поведением профессионального интригана, наемный солдат, охваченный жаждой быть произведенным в рыцари, старый граф — владелец небольшого города и его окрестностей, его единственная дочь — главные герои этой историко-фантастической сказки.
Качество видео: DVDRip
Формат: MKV
Видео: x264, 1464 кбит/с, 720x400, 25 к/с
Аудио 1: Русский АО (Вартан Дохалов (с VHS)(AC3, 2 ch, 192 Кбит/с)
Аудио 2: Испанский (AC3, 2 ch, 192 Кбит/с)
Работа над релизом:
Видеоряд найден в сети.
Испанская дорожка - на ютубе
Синхр. испанской дорожки - kosmoaelita



Трейлер:

Дополнительно

слоган «One Man's Quest is Another Man's Destiny»
Star Knight France (video title) / Norway (imdb display title) / USA (video title)
Gwiezdny rycerz Poland
Le chevalier du dragon France
O Cavaleiro Estelar Brazil
O ippotis ton astron Greece (video title)
Star Knight - Der Herr der Sterne West Germany
The Knight of the Dragon (undefined)

Рецензия

"Поиски начались более двух тысяч лет назад в Китае, Греции и Египте. Многие считали, что они приведут к осуществлению самой заветной и древней мечты человека - превращению свинца в чистое золото, но многие смотрели глубже, думая, что смогут открыть эликсир жизни, жидкое золото, тайну тайн". Таким текстом открывается фильм, а сюжет сводится к тому, что средневековые рыцари встречаются с гостями из космоса. Костюмы, декорации, обстановка и атмосфера достаточно достоверны, но все остальное - чистая дребедень для взрослых, оставшихся подростками и детьми, так как в картине есть откровенные сцены и насилие. Лицам до 16 - с разрешения родителей.

MediaInfo

Общее
Уникальный идентификатор : 220943875285768091371936733460570476922 (0xA6383E17602166FF96C345C04F52917A)
Полное имя : N:\BD-DISC\Star knight 1985.XviD.DVDRip.PAL16x9.Rus.kosmoaelita.mkv
Формат : Matroska
Версия формата : Version 4
Размер файла : 1,15 Гбайт
Продолжительность : 1 ч. 27 м.
Общий поток : 1886 Кбит/сек
Название фильма : Рыцарь дракона / Звездный рыцарь / El caballero del dragon / Star knight / 1985 / kosmoaelita
Дата кодирования : UTC 2019-09-03 01:42:55
Программа кодирования : mkvmerge v6.6.0 ('The Edge Of The In Between') built on Dec 1 2013 17:55:00
Библиотека кодирования : libebml v1.3.0 + libmatroska v1.4.1
Attachments : POSTER.jpg
Видео
Идентификатор : 1
Формат : MPEG-4 Visual
Профиль формата : Advanced Simple@L5
Параметр BVOP формата : Нет
Параметр QPel формата : Нет
Параметр GMC формата : Без точки перехода
Параметр матрицы формата : Default (MPEG)
Идентификатор кодека : V_MS/VFW/FOURCC / XVID
Идентификатор кодека/Подсказка : XviD
Продолжительность : 1 ч. 27 м.
Битрейт : 1464 Кбит/сек
Ширина : 720 пикселей
Высота : 400 пикселей
Соотношение сторон : 16:9
Соотношение сторон в оригинале : 16:9
Режим частоты кадров : Постоянный
Частота кадров : 25,000 кадров/сек
Цветовое пространство : YUV
Субдискретизация насыщенности : 4:2:0
Битовая глубина : 8 бит
Тип развёртки : Прогрессивная
Метод сжатия : С потерями
Бит/(Пиксели*Кадры) : 0.203
Размер потока : 918 Мбайт (78%)
Заголовок : http://kosmoaelita.com/viewtopic.php?t=474
Библиотека кодирования : XviD 64
Default : Да
Forced : Нет
Аудио #1
Идентификатор : 2
Формат : AC-3
Формат/Информация : Audio Coding 3
Коммерческое название : Dolby Digital
Идентификатор кодека : A_AC3
Продолжительность : 1 ч. 27 м.
Вид битрейта : Постоянный
Битрейт : 192 Кбит/сек
Каналы : 2 канала
Channel layout : L R
Частота : 48,0 КГц
Частота кадров : 31,250 кадров/сек (1536 SPF)
Битовая глубина : 16 бит
Метод сжатия : С потерями
Размер потока : 120 Мбайт (10%)
Заголовок : Русский АО (Вартан Дохалов) c VHS
Язык : Russian
ServiceKind/String : Complete Main
Default : Да
Forced : Нет
Аудио #2
Идентификатор : 3
Формат : AC-3
Формат/Информация : Audio Coding 3
Коммерческое название : Dolby Digital
Идентификатор кодека : A_AC3
Продолжительность : 1 ч. 27 м.
Вид битрейта : Постоянный
Битрейт : 192 Кбит/сек
Каналы : 2 канала
Channel layout : L R
Частота : 48,0 КГц
Частота кадров : 31,250 кадров/сек (1536 SPF)
Битовая глубина : 16 бит
Метод сжатия : С потерями
Размер потока : 120 Мбайт (10%)
Язык : Spanish
ServiceKind/String : Complete Main
Default : Нет
Forced : Нет

Скриншоты










Скринлист

Файл дополнительно залит на ОБЛАКО DVD5 NTSC: cd DVD5 cd2
Star knight.avi.torrent
Torrent: Registered [ 2013-01-01 14:34 ]

Download .torrent

Download

42 KB

Status: checked
Completed: 15 times
Size: 1.04 GB
 
[Profile] [PM]
Display posts:    
Reply to topic

Current time is: 20-Nov 06:37

All times are UTC + 3



You cannot post new topics in this forum
You cannot reply to topics in this forum
You cannot edit your posts in this forum
You cannot delete your posts in this forum
You cannot vote in polls in this forum
You cannot attach files in this forum
You can download files in this forum