Индия / India: Matri Bhumi (Роберто Росселлини / Roberto Rossellini) [1959 г., документальный, драма, DVDRip] ПО (Лексикон)

Reply to topic
DL-List and Torrent activity
Size:  1.48 GB   |    Registered:  6 years 9 months   |    Completed:  6 times

Seeder not seen: 4 years 8 months

 
   
 
 
 
Author Message

admin ®

Gender: Male

Longevity: 7 years 1 month

Posts: 4725

Location: Україна

Post 31-Dec-2012 14:06

[Quote]

Индия / India: Matri Bhumi
Год выпуска: 1959
Страна: Италия, Франция
Жанр: документальный, драма
Продолжительность: 01:30:24
Перевод: Профессиональный (одноголосый) Студия Лексикон
Режиссер: Роберто Росселлини / Roberto Rossellini
Описание: Еще один редкий фильм, пока отсутствующий на русских торрентах
Документальный фильм 1959 года, снятый легендарным Роберто Росселини. Автор смотрит на страну глазами путешественника, а не исследователя, но все же успевает многое рассказать зрителю и об ее истории, и о современной жизни. Рассказчик восхищается многообразием и богатством индийской культуры. По его мнению, «Индия – это калейдоскоп рас, отличающихся друг от друга языками и обычаями».
Индийцы – на удивление спокойный народ, и именно это спокойствие располагает к философии, самосовершенствованию и духовному развитию. Это нация, умеющая хранить традиции и приспосабливаться к современным технологиям. Впрочем, древние ремесла живы в индийской культуре: например, в фильме показано, как слоны валят деревья и тащат бревна. Работают индийцы в полную силу, и отдыхают тоже – устраивают уличные праздники и пышные свадьбы, ходят в кукольный театр, катаются на каруселях, смотрят уличные представления. Это удивительная, самобытная и жизнерадостная страна, завораживающая путешественников своей красотой и заряжающая энергией.

Представлена французская версия, которая на две минуты длиннее полуреставрированной итальянской
Качество: DVDRip
Формат: MKV
Видео: x264, 1905 кбит/с, 720x540, 25 к/с, crf=22
Аудио 1: Русский (AC3, 2 ch, 192 Кбит/с)
Аудио 2: Французский (AC3, 2 ch, 192 Кбит/с)


Релиз

Рип с французского ДВД5 - sasha20072007
Проф. озвучка - Лексикон по заказу канала 24 ДОК в 2011 году.
Синхр. русской дорожки - sasha20072007
Для Украины: рип и оригинальныt ДВД дополнительно залиты в файлохранилище
Файл залит на mail.ru
Для удаления и добавления дорожек в mkv используйте бесплатную mkvmerge GUI 5.80

Дополнительно

Also Known As (AKA)
Inde, terre mère France
India, mana gi Greece (festival title)
Indien, Mutter Erde West Germany

MediaInfo

Общее
Уникальный идентификатор : 243343826542249801762869035598417359931 (0xB71250F493B7E7CC9FAD6AA0D81DF43B)
Полное имя : E:\Rossellini Roberto - India.DVD\Индия India Matri Bhumi 1959.x264.DVDRip.mkv
Формат : Matroska
Версия формата : Version 4 / Version 2
Размер файла : 1,48 Гбайт
Продолжительность : 1 ч. 30 м.
Общий поток : 2336 Кбит/сек
Название фильма : Rossellini Roberto - India: Matri Bhumi / 1959 / rip by sasha20072007 (2012-12-31)
Дата кодирования : UTC 2012-12-31 14:45:18
Программа кодирования : mkvmerge v5.9.0 ('On The Loose') built on Dec 23 2012 14:24:43
Библиотека кодирования : libebml v1.3.0 + libmatroska v1.4.0
Attachment : Yes / Yes
Видео
Идентификатор : 1
Формат : AVC
Формат/Информация : Advanced Video Codec
Профиль формата : High@L4.1
Параметр CABAC формата : Да
Параметр ReFrames формата : 10 кадров
Идентификатор кодека : V_MPEG4/ISO/AVC
Продолжительность : 1 ч. 30 м.
Битрейт : 1905 Кбит/сек
Ширина : 720 пикселей
Высота : 540 пикселей
Соотношение сторон : 4:3
Режим частоты кадров : Постоянный
Частота кадров : 25,000 кадров/сек
Цветовое пространство : YUV
Субдискретизация насыщенности : 4:2:0
Битовая глубина : 8 бит
Тип развёртки : Прогрессивная
Бит/(Пиксели*Кадры) : 0.196
Размер потока : 1,20 Гбайт (82%)
Библиотека кодирования : x264 core 125 r2208 d9d2288
Настройки программы : cabac=1 / ref=10 / deblock=1:-1:0 / analyse=0x3:0x133 / me=umh / subme=10 / psy=1 / psy_rd=1.10:0.15 / mixed_ref=1 / me_range=24 / chroma_me=1 / trellis=2 / 8x8dct=1 / cqm=0 / deadzone=21,11 / fast_pskip=1 / chroma_qp_offset=-3 / threads=4 / lookahead_threads=1 / sliced_threads=0 / nr=0 / decimate=1 / interlaced=0 / bluray_compat=0 / constrained_intra=0 / bframes=10 / b_pyramid=2 / b_adapt=2 / b_bias=0 / direct=1 / weightb=1 / open_gop=0 / weightp=2 / keyint=220 / keyint_min=22 / scenecut=40 / intra_refresh=0 / rc_lookahead=60 / rc=crf / mbtree=1 / crf=22.0 / qcomp=0.60 / qpmin=0 / qpmax=69 / qpstep=4 / vbv_maxrate=17500 / vbv_bufsize=14000 / crf_max=0.0 / nal_hrd=none / ip_ratio=1.40 / aq=1:0.90
Default : Да
Forced : Нет
Основные цвета : BT.601 PAL
Характеристики трансфера : BT.470 System B, BT.470 System G
Коэффициенты матрицы : BT.601
Аудио #1
Идентификатор : 2
Формат : AC-3
Формат/Информация : Audio Coding 3
Расширение режима : CM (complete main)
Параметр Endianness формата : Big
Идентификатор кодека : A_AC3
Продолжительность : 1 ч. 30 м.
Вид битрейта : Постоянный
Битрейт : 192 Кбит/сек
Каналы : 2 канала
Расположение каналов : Front: L R
Частота : 48,0 КГц
Битовая глубина : 16 бит
Метод сжатия : С потерями
Размер потока : 124 Мбайт (8%)
Заголовок : Русский ПО (Лексикон)
Язык : Russian
Default : Да
Forced : Да
Аудио #2
Идентификатор : 3
Формат : AC-3
Формат/Информация : Audio Coding 3
Расширение режима : CM (complete main)
Параметр Endianness формата : Big
Идентификатор кодека : A_AC3
Продолжительность : 1 ч. 30 м.
Вид битрейта : Постоянный
Битрейт : 192 Кбит/сек
Каналы : 2 канала
Расположение каналов : Front: L R
Частота : 48,0 КГц
Битовая глубина : 16 бит
Метод сжатия : С потерями
Размер потока : 124 Мбайт (8%)
Язык : French
Default : Нет
Forced : Нет
Файл залит на mail.ru
Индия India Matri Bhumi 1959.x264.DVDRip.mkv.torrent
Torrent: Registered [ 2012-12-31 18:01 ]

Download .torrent

Download

59 KB

Status: checked
Completed: 6 times
Size: 1.48 GB
 


Last edited by admin on 2013-12-27 08:58; edited 2 times in total
[Profile] [PM]

Guest

Gender: Unknown

Post 02-Jul-2013 21:30 (after 6 months 2 days)

[Quote]

Посидируйте, please !
 

$Shorox

Gender: Male

Longevity: 6 years 10 months

Posts: 1888

Post 02-Jul-2013 22:14 (after 44 minutes)

[Quote]

Holmes,
admin1 до 03.07 в командировке.
[Profile] [PM]
Quick Reply

Name:

            
Heads necessary to send messages to enable JavaScript
Display posts:    
Reply to topic

Current time is: 21-Oct 09:07

All times are UTC + 3



You cannot post new topics in this forum
You can reply to topics in this forum
You cannot edit your posts in this forum
You cannot delete your posts in this forum
You cannot vote in polls in this forum
You cannot attach files in this forum
You can download files in this forum