Солнечный кризис / Solar Crisis (Ричард С. Сарафьян, Алан Смити / Richard C. Sarafian, Alan Smithee) [1990 г., Фантастика, катастрофа, приключения, DVDRip] АО (В.Дохалов)

Reply to topic
 
Author Message

anvic ®

Gender: Male

Longevity: 7 years 1 month

Posts: 62

Post 29-Dec-2012 14:24

[Quote]

Солнечный кризис / Solar Crisis
Год выпуска: 1990
Страна: США, Япония
Жанр: Фантастика, катастрофа, приключения
Продолжительность: 01:47:03
Перевод: Авторский (одноголосый) В.Дохалов
Режиссер: Ричард С. Сарафьян, Алан Смити / Richard C. Sarafian, Alan Smithee
В ролях: Тим Матисон, Чарлтон Хестон, Питер Бойл, Аннабел Шофилд, Корин Немек, Джек Пэлэнс, Пол Косло, Джимми Ф. Скэггс, Милт Коган, Стив Уэллс, Бренда Бэкки, Крис Нэш, Сильвана Гальярдо
Описание: Из-за сильного потепления на Земле критическая ситуация: ресурсы на исходе, растительность почти исчезла. В борьбе за выживание грабежи и разбой стали привычным делом. Чтобы снизить солнечную активность, к светилу отправляется космический корабль со сверхмощной бомбой для реализации проекта «Встречный пожар». Но в составе экипажа улетает диверсант — искусственный человек «Делайла».
Качество: DVDRip
Формат: mkv
Видео: х264, 1236 кбит/с, 720x384, 25 к/с
Аудио 1: Русский (АС3, 2 ch, 192 Кбит/с)
Аудио 2: Английский (АС3, 2 ch, 192 Кбит/с)


Трейлер:

Релиз

Рип найден в сети.
Синхр. русской дорожки - sasha20072007
Длинніе звуковіе паузі заменены более качественными с оригин. дорожки
Авторская озвучка 9с VHS) - В.Дохалов
Сравнение: kosmoaelita.com vs. rutracker
Для Украины: рип дополнительно залит в файлохранилище

Дополнительно

слоган «In the year 2050, the battle to save the earth will be fought on the sun.»
бюджет $55 000 000
Also Known As (AKA)
Solar Crisis France / Spain
Starfire Austria / Germany
Ameaça Solar Portugal
Crisis 2050 USA (working title)
Kuraishisu niimaru-goomaru nen Japan
Solarna kriza Serbia (imdb display title)

Отзывы

Масштабный телефильм, снятый по роману Такеши Кавата на японские деньги. Участникам космической экспедиции придется рисковать жизнями для нейтрализации очага солнечного пожара, грозящего уничтожить земную цивилизацию. "Плохие ребята" из транснациональной корпорации строят козни против смельчаков. Земные эпизоды явно сняты под влиянием псевдофутурологии "Безумного Макса". Музыка Мориса Жарра. Визуальные эффекты Нейла Крепелы (Neil Krepela). Впервые на экране Дэвид Урсин в роли Ковача
--------------------------------------------------------
По сюжету очень похоже на " Пекло " только там наоборот, солнце слишком слабо светило и туда послали команду с бомбой, что б они этой бомбой увеличили яркость солнца. Кстати если Пекло снималось под впечатлением этого фильма, то этот должен быть хороший фильм.

MediaInfo

Общее
Уникальный идентификатор : 217999747468200518386737577516822158612 (0xA401396202EF72E4BCB65C378107DD14)
Полное имя : F:\Downloads\Солнечный кризис Solar Crisis 1990.x264.DVDRip.mkv
Формат : Matroska
Версия формата : Version 4 / Version 2
Размер файла : 1,23 Гбайт
Продолжительность : 1 ч. 46 м.
Общий поток : 1652 Кбит/сек
Название фильма : Солнечный кризис / Solar Crisis / 1990 / sasha20072007
Дата кодирования : UTC 2012-12-29 22:06:08
Программа кодирования : mkvmerge v5.9.0 ('On The Loose') built on Dec 15 2012 16:39:58
Библиотека кодирования : libebml v1.3.0 + libmatroska v1.4.0
Attachment : Yes
Видео
Идентификатор : 1
Формат : AVC
Формат/Информация : Advanced Video Codec
Профиль формата : High@L4.1
Параметр CABAC формата : Да
Параметр ReFrames формата : 10 кадров
Идентификатор кодека : V_MPEG4/ISO/AVC
Продолжительность : 1 ч. 46 м.
Битрейт : 1236 Кбит/сек
Ширина : 720 пикселей
Высота : 384 пикселя
Соотношение сторон : 1,85:1
Режим частоты кадров : Постоянный
Частота кадров : 25,000 кадров/сек
Цветовое пространство : YUV
Субдискретизация насыщенности : 4:2:0
Битовая глубина : 8 бит
Тип развёртки : Прогрессивная
Бит/(Пиксели*Кадры) : 0.179
Размер потока : 943 Мбайт (75%)
Библиотека кодирования : x264 core 125 r2208 d9d2288
Настройки программы : cabac=1 / ref=10 / deblock=1:-3:-2 / analyse=0x3:0x133 / me=umh / subme=10 / psy=1 / psy_rd=1.10:0.15 / mixed_ref=1 / me_range=24 / chroma_me=1 / trellis=2 / 8x8dct=1 / cqm=0 / deadzone=21,11 / fast_pskip=1 / chroma_qp_offset=-3 / threads=4 / lookahead_threads=1 / sliced_threads=0 / nr=0 / decimate=1 / interlaced=0 / bluray_compat=0 / constrained_intra=0 / bframes=10 / b_pyramid=2 / b_adapt=2 / b_bias=0 / direct=1 / weightb=1 / open_gop=0 / weightp=2 / keyint=220 / keyint_min=22 / scenecut=40 / intra_refresh=0 / rc_lookahead=60 / rc=crf / mbtree=1 / crf=18.0 / qcomp=0.60 / qpmin=0 / qpmax=69 / qpstep=4 / vbv_maxrate=17500 / vbv_bufsize=14000 / crf_max=0.0 / nal_hrd=none / ip_ratio=1.40 / aq=1:0.90
Default : Да
Forced : Нет
Аудио #1
Идентификатор : 2
Формат : AC-3
Формат/Информация : Audio Coding 3
Расширение режима : CM (complete main)
Параметр Endianness формата : Big
Идентификатор кодека : A_AC3
Продолжительность : 1 ч. 46 м.
Вид битрейта : Постоянный
Битрейт : 192 Кбит/сек
Каналы : 2 канала
Расположение каналов : Front: L R
Частота : 48,0 КГц
Битовая глубина : 16 бит
Метод сжатия : С потерями
Размер потока : 147 Мбайт (12%)
Заголовок : Русский АО (В.Дохалов)
Язык : Russian
Default : Да
Forced : Нет
Аудио #2
Идентификатор : 3
Формат : AC-3
Формат/Информация : Audio Coding 3
Расширение режима : CM (complete main)
Параметр Endianness формата : Big
Идентификатор кодека : A_AC3
Продолжительность : 1 ч. 46 м.
Вид битрейта : Постоянный
Битрейт : 192 Кбит/сек
Каналы : 2 канала
Расположение каналов : Front: L R
Частота : 48,0 КГц
Битовая глубина : 16 бит
Метод сжатия : С потерями
Размер потока : 147 Мбайт (12%)
Язык : English
Default : Нет
Forced : Нет
cd Рип дополнительно залит на mail.ru cd2
[Profile] [PM]

Guest

Gender: Unknown

Post 29-Dec-2012 15:47 (after 1 hour 22 minutes)

[Quote]

Поздравляю с первой раздачей!
Дооформил Вам более-менее...
 

anvic ®

Gender: Male

Longevity: 7 years 1 month

Posts: 62

Post 29-Dec-2012 15:51 (after 3 minutes)

[Quote]

Спасибо
[Profile] [PM]

admin

Gender: Male

Longevity: 7 years 2 months

Posts: 4721

Post 29-Dec-2012 15:57 (after 6 minutes)

[Quote]

Широкоформатный , по теории, должен быть...
Съёмки: 18 октября 1989 — 21 января 1990
Формат изображения: 2.35 : 1
[Profile] [PM]

anvic ®

Gender: Male

Longevity: 7 years 1 month

Posts: 62

Post 29-Dec-2012 16:10 (after 13 minutes)

[Quote]

Нигде не встречал
у Японцев на лазердиске вроде вышел
но качество очьплохо
[Profile] [PM]

admin

Gender: Male

Longevity: 7 years 2 months

Posts: 4721

Post 29-Dec-2012 16:14 (after 3 minutes)

[Quote]

Если вы не против - могу попытаться подогнать дорожку к рипу с синемагеддона
http://screenshotcomparison.com/comparison/166125
Тяну еще диск с юзенета - не знаю, правда, какой там формат...
[Profile] [PM]

anvic ®

Gender: Male

Longevity: 7 years 1 month

Posts: 62

Post 29-Dec-2012 16:21 (after 6 minutes)

[Quote]

Конечно не против
[Profile] [PM]

admin

Gender: Male

Longevity: 7 years 2 months

Posts: 4721

Post 30-Dec-2012 01:19 (after 8 hours)

[Quote]

Перезалито в лучшем качестве (широкоформатное видео)
http://screenshotcomparison.com/comparison/166236
[Profile] [PM]

anvic ®

Gender: Male

Longevity: 7 years 1 month

Posts: 62

Post 01-Feb-2019 22:43 (after 6 years 1 month)

[Quote]

На CG web rip 11 gb появился
[Profile] [PM]
Quick Reply

Name:

            
Heads necessary to send messages to enable JavaScript
Display posts:    
Reply to topic

Current time is: 21-Nov 11:35

All times are UTC + 3



You cannot post new topics in this forum
You can reply to topics in this forum
You cannot edit your posts in this forum
You cannot delete your posts in this forum
You cannot vote in polls in this forum
You cannot attach files in this forum
You cannot download files in this forum