Байконур / Baikonur (Сергей Ашкенази / Sergey Ashkenazi, Файт Хелмер / Veit Helmer) [2011 г., драма, фантастика, DVDRip-AVC] Рус Нем

Reply to topic
 
Author Message

admin ®

Gender: Male

Longevity: 7 years 2 months

Posts: 4723

Post 28-Dec-2012 11:23

[Quote]

Байконур / Baikonur
Год выпуска: 2011
Страна: Россия, Германия, Казахстан, Кинокомпания CTB, Veit Helmer Filmproduktion
Жанр: драма, фантастика
Продолжительность: 01:31:05
Перевод: Не требуется
Режиссер: Сергей Ашкенази / Sergey Ashkenazi, Файт Хелмер / Veit Helmer
В ролях: Alexander Asochakov, Мари де Вильпен, Sitora Farmonova, Валера Канищев, Ерболат Тогузаков
Описание: Искандер по прозвищу Гагарин живет в деревне Кунгей возле космодрома. Жизнь жителей деревни размеренно течет от одного взлёта ракеты к следующему. Пока однажды с неба не падает прекрасная космическая туристка Джули. Жизнь Гагарина перевернулась. Он влюблен без пямяти и готов ради Джули на все — отдать ей свадебное платье матери, поставить в юрте ванную и даже уйти из деревни. Сможет ли француженка оценить его жертвы, если она потеряла память и теперь отзывается на казахское имя Кокетай? cd DVD5Качество: DVDRip-AVC
Формат: MKV
Видео: x264, 1397 кбит/с, 720x552@1024x552, 25 к/с, crf=19
Аудио 1: Русский (AC3, 6 ch, 448 Кбит/с)
Аудио 2: Немецкий (AC3, 6 ch, 448 Кбит/с)
Субтитры : Английские


Трейлер

Релиз

Рип с нем. ДВД5 - sasha20072007
Лог кодирования - в контейнере
Для Украины: Рип и оригинальный ДВД дополнительно залиты в файлохранилище
Для удаления и добавления дорожек в mkv используйте бесплатную mkvmerge GUI 5.80

Дополнительно

Формат изображения: 1.85 : 1
Камера: Arriflex 535
Формат копии: 35 mm
Формат съёмок: 35 mm (Kodak Vision2 50D 5201, Vision3 250D 5207, Vision3 500T 5219)
Also Known As (AKA)
Bajkonur Czech Republic (festival title)
Milosc z ksiezyca Poland (imdb display title)

Рецензия

MediaInfo

Общее
Уникальный идентификатор : 220125489199248100037872706292711788003 (0xA59AA08AC040EBB99C8992A492498DE3)
Полное имя : F:\Downloads\11111111111111111111111111111111\Байконур Baikonur 2011.x264.DVDRip.AVC.mkv
Формат : Matroska
Версия формата : Version 4 / Version 2
Размер файла : 1,46 Гбайт
Продолжительность : 1 ч. 30 м.
Общий поток : 2297 Кбит/сек
Название фильма : Байконур / Baikonur / 2011 / rip by sasha20072007 (2012-12-28)
Дата кодирования : UTC 2012-12-28 08:15:44
Программа кодирования : mkvmerge v5.9.0 ('On The Loose') built on Dec 15 2012 16:39:58
Библиотека кодирования : libebml v1.3.0 + libmatroska v1.4.0
Attachment : Yes / Yes
Видео
Идентификатор : 1
Формат : AVC
Формат/Информация : Advanced Video Codec
Профиль формата : High@L4.1
Параметр CABAC формата : Да
Параметр ReFrames формата : 10 кадров
Идентификатор кодека : V_MPEG4/ISO/AVC
Продолжительность : 1 ч. 30 м.
Битрейт : 1397 Кбит/сек
Ширина : 720 пикселей
Высота : 552 пикселя
Соотношение сторон : 1,85:1
Режим частоты кадров : Постоянный
Частота кадров : 25,000 кадров/сек
Цветовое пространство : YUV
Субдискретизация насыщенности : 4:2:0
Битовая глубина : 8 бит
Тип развёртки : Прогрессивная
Бит/(Пиксели*Кадры) : 0.141
Размер потока : 882 Мбайт (59%)
Библиотека кодирования : x264 core 125 r2208 d9d2288
Настройки программы : cabac=1 / ref=10 / deblock=1:-1:-2 / analyse=0x3:0x133 / me=umh / subme=10 / psy=1 / psy_rd=1.10:0.15 / mixed_ref=1 / me_range=24 / chroma_me=1 / trellis=2 / 8x8dct=1 / cqm=0 / deadzone=21,11 / fast_pskip=1 / chroma_qp_offset=-3 / threads=4 / lookahead_threads=1 / sliced_threads=0 / nr=0 / decimate=1 / interlaced=0 / bluray_compat=0 / constrained_intra=0 / bframes=10 / b_pyramid=2 / b_adapt=2 / b_bias=0 / direct=3 / weightb=1 / open_gop=0 / weightp=2 / keyint=220 / keyint_min=22 / scenecut=40 / intra_refresh=0 / rc_lookahead=60 / rc=2pass / mbtree=1 / bitrate=1397 / ratetol=1.0 / qcomp=0.60 / qpmin=0 / qpmax=69 / qpstep=4 / cplxblur=20.0 / qblur=0.5 / vbv_maxrate=17500 / vbv_bufsize=14000 / nal_hrd=none / ip_ratio=1.40 / aq=1:0.90
Default : Да
Forced : Нет
Основные цвета : BT.601 PAL
Характеристики трансфера : BT.470 System B, BT.470 System G
Коэффициенты матрицы : BT.601
Аудио #1
Идентификатор : 2
Формат : AC-3
Формат/Информация : Audio Coding 3
Расширение режима : CM (complete main)
Параметр Endianness формата : Big
Идентификатор кодека : A_AC3
Продолжительность : 1 ч. 30 м.
Вид битрейта : Постоянный
Битрейт : 448 Кбит/сек
Каналы : 6 каналов
Расположение каналов : Front: L C R, Side: L R, LFE
Частота : 48,0 КГц
Битовая глубина : 16 бит
Метод сжатия : С потерями
Задержка видео : 8 мс.
Размер потока : 292 Мбайт (20%)
Заголовок : AC3 5.1 448
Язык : Russian
Default : Да
Forced : Нет
Аудио #2
Идентификатор : 3
Формат : AC-3
Формат/Информация : Audio Coding 3
Расширение режима : CM (complete main)
Параметр Endianness формата : Big
Идентификатор кодека : A_AC3
Продолжительность : 1 ч. 30 м.
Вид битрейта : Постоянный
Битрейт : 448 Кбит/сек
Каналы : 6 каналов
Расположение каналов : Front: L C R, Side: L R, LFE
Частота : 48,0 КГц
Битовая глубина : 16 бит
Метод сжатия : С потерями
Задержка видео : 8 мс.
Размер потока : 292 Мбайт (20%)
Заголовок : AC3 5.1 448
Язык : German
Default : Нет
Forced : Нет
Текст
Идентификатор : 4
Формат : VobSub
Идентификатор кодека : S_VOBSUB
Идентификатор кодека/Информация : The same subtitle format used on DVDs
Язык : English
Default : Нет
Forced : Нет
Меню
00:00:00.000 : :Chapter 01
00:12:33.000 : :Chapter 02
00:21:31.000 : :Chapter 03
00:30:33.040 : :Chapter 04
00:38:00.800 : :Chapter 05
00:47:04.000 : :Chapter 06
00:58:19.000 : :Chapter 07
01:06:44.680 : :Chapter 08
01:12:53.320 : :Chapter 09
01:22:47.480 : :Chapter 10
01:27:40.880 : :Chapter 11
01:30:58.720 : :Chapter 12

Скриншоты



Скачать фильм на сервере Яндекса: http://yadi.sk/d/6YshS9a84KIJ6 cd Рип дополнительно залит на mail.ru cd2
[Profile] [PM]
Display posts:    
Reply to topic

Current time is: 14-Nov 09:24

All times are UTC + 3



You cannot post new topics in this forum
You cannot reply to topics in this forum
You cannot edit your posts in this forum
You cannot delete your posts in this forum
You cannot vote in polls in this forum
You cannot attach files in this forum
You cannot download files in this forum