Байконур / Baikonur (Сергей Ашкенази / Sergey Ashkenazi, Файт Хелмер / Veit Helmer) [2011 г., драма, фантастика, DVD5] Рус Нем

Reply to topic
 
Author Message

admin ®

Gender: Male

Longevity: 7 years 3 months

Posts: 4811

Post 27-Dec-2012 01:40

[Quote]

Байконур / Baikonur
Год выпуска: 2011
Страна: Россия, Германия, Казахстан, Кинокомпания CTB, Veit Helmer Filmproduktion
Жанр: драма, фантастика
Продолжительность: 01:31:05
Перевод: Не требуется
Режиссер: Сергей Ашкенази / Sergey Ashkenazi, Файт Хелмер / Veit Helmer
В ролях: Alexander Asochakov, Мари де Вильпен, Sitora Farmonova, Валера Канищев, Ерболат Тогузаков
Описание: Искандер по прозвищу Гагарин живет в деревне Кунгей возле космодрома. Жизнь жителей деревни размеренно течет от одного взлёта ракеты к следующему. Пока однажды с неба не падает прекрасная космическая туристка Джули. Жизнь Гагарина перевернулась. Он влюблен без пямяти и готов ради Джули на все — отдать ей свадебное платье матери, поставить в юрте ванную и даже уйти из деревни. Сможет ли француженка оценить его жертвы, если она потеряла память и теперь отзывается на казахское имя Кокетай?DVDRip-AVCКачество: DVD5
Формат: DVD Video
Видео: MPEG2, 5795 кбит/с, 720x576@1024x576, 25 к/с
Аудио 1: Русский (AC3, 6 ch, 448 Кбит/с)
Аудио 2: Немецкий (AC3, 6 ch, 448 Кбит/с)
Субтитры : Английские


Трейлер

Релиз

Диск стянут с юзенета
Для Украины: оригинальный ДВД дополнительно залит в файлохранилище
Для удаления и добавления дорожек в mkv используйте бесплатную mkvmerge GUI 5.80

Дополнительно

Формат изображения: 1.85 : 1
Камера: Arriflex 535
Формат копии: 35 mm
Формат съёмок: 35 mm (Kodak Vision2 50D 5201, Vision3 250D 5207, Vision3 500T 5219)
Also Known As (AKA)
Bajkonur Czech Republic (festival title)
Milosc z ksiezyca Poland (imdb display title)

Рецензия

MediaInfo


Общее
Полное имя : K:\VIDEO_TS\VTS_12_1.VOB
Формат : MPEG-PS
Размер файла : 1024 Мбайт
Продолжительность : 20 м.
Режим общего битрейта : Переменный
Общий поток : 6827 Кбит/сек
Видео
Идентификатор : 224 (0xE0)
Формат : MPEG Video
Версия формата : Version 2
Профиль формата : Main@Main
Параметр BVOP формата : Да
Параметр матрицы формата : Выборочная
Продолжительность : 20 м.
Вид битрейта : Переменный
Битрейт : 5795 Кбит/сек
Ширина : 720 пикселей
Высота : 576 пикселей
Соотношение сторон : 16:9
Частота кадров : 25,000 кадров/сек
Стандарт вещания : PAL
Цветовое пространство : YUV
Субдискретизация насыщенности : 4:2:0
Битовая глубина : 8 бит
Метод сжатия : С потерями
Бит/(Пиксели*Кадры) : 0.559
Размер потока : 869 Мбайт (85%)
Аудио #1
Идентификатор : 189 (0xBD)-129 (0x81)
Формат : AC-3
Формат/Информация : Audio Coding 3
Расширение режима : CM (complete main)
Параметр Endianness формата : Big
Режим смешивания : DVD-Video
Продолжительность : 20 м.
Вид битрейта : Постоянный
Битрейт : 448 Кбит/сек
Каналы : 6 каналов
Расположение каналов : Front: L C R, Side: L R, LFE
Частота : 48,0 КГц
Битовая глубина : 16 бит
Метод сжатия : С потерями
Задержка видео : -57 мс.
Размер потока : 67,2 Мбайт (7%)
Аудио #2
Идентификатор : 189 (0xBD)-131 (0x83)
Формат : AC-3
Формат/Информация : Audio Coding 3
Расширение режима : CM (complete main)
Параметр Endianness формата : Big
Режим смешивания : DVD-Video
Продолжительность : 20 м.
Вид битрейта : Постоянный
Битрейт : 448 Кбит/сек
Каналы : 6 каналов
Расположение каналов : Front: L C R, Side: L R, LFE
Частота : 48,0 КГц
Битовая глубина : 16 бит
Метод сжатия : С потерями
Задержка видео : -57 мс.
Размер потока : 67,2 Мбайт (7%)
Текст
Идентификатор : 189 (0xBD)-32 (0x20)
Формат : RLE
Формат/Информация : Run-length encoding
Режим смешивания : DVD-Video
Меню
Скачать диск на сервере Google: https://docs.google.com/file/d/0B_ZtPQB5um0-T1VWOExyb2JKenM/edit
[Profile] [PM]
Display posts:    
Reply to topic

Current time is: 07-Dec 06:54

All times are UTC + 3



You cannot post new topics in this forum
You cannot reply to topics in this forum
You cannot edit your posts in this forum
You cannot delete your posts in this forum
You cannot vote in polls in this forum
You cannot attach files in this forum
You cannot download files in this forum