Филадельфийский эксперимент (ТВ) / The Philadelphia Experiment (TV) (Пол Циллер / Paul Ziller) Мистика, Фантастика, Триллер [2012, США, Канада, BDRip-1080p] ПМ (Syfy), ЛО (О. Иванов)

Reply to topic
 
Author Message

admin ®

Gender: Male

Longevity: 7 years 2 months

Posts: 4721

Post 26-Dec-2012 17:10

[Quote]

Филадельфийский эксперимент (ТВ) / The Philadelphia Experiment (TV)
Страна: США, Канада
Жанр: Мистика, Фантастика, Триллер
Дата выхода: 2012
Продолжительность: 01:28:53
Перевод 1: ПМ (Syfy)
Перевод 2: ЛО (О. Иванов)
Режиссёр: Пол Циллер / Paul Ziller
В ролях: Николас Лиа, Райан Роббинс, Джина Холден, Лауро Чартрэнд, Эллисон Хоссак, Чад Кровчук, Том МакБет, Малкольм МакДауэлл, Майкл Паре, Марк Поусон, Джон Рирдон, Дин Редман, Марша Режис, Эмили Уллерап
О фильме: Правительство возобновляет исследования секретного проекта второй мировой войны "Филадельфийский эксперимент", В котором была предпринята попытка создать устройство маскировки кораблей делая их невидимыми. Если эксперимент удастся, он возвратит корабль (Элдридж), который исчез во время первого испытания в 1943 году - повлекшим смерть и разрушения в 21 веке. Исход зависит от, единственного оставшегося в живых, участника первого эксперимента (Lea) и его внучки (Ullerup).HDRipКачество: BDRip-1080p
Формат: mkv
Видео: х264, 9932 Кбит/с, 1920x1080
Аудио 1: Русский ПМ (Syfy) (AC3, 2 ch, 192 Кбит/с)
Аудио 2: Русский ЛО (О. Иванов) (AC3, 6 ch, 384 Кбит/с)
Аудио 3: Английский (DTS, 6 ch, 755 Кбит/с)


Релиз

Видеоряд от HDCHina!
Для Украины: рип и оригинальный ДВД дополнительно залиты в файлохранилище
Для удаления и добавления дорожек в mkv используйте бесплатную mkvmerge GUI 5.80

Дополнительно

это новый вариант фильма 1984 года США Режиссёр - Стюарт Рэффил
есть еще фильм «Филадельфийский эксперимент II» 1993 года США РежиссёрСтивен Корнуэлл
Единственный оставшийся в живых после первого эксперимента Леа и его внучка, пытаются остановить это безумие
Also Known As (AKA)
Eksperyment 'Filadelfia' Poland (imdb display title)

Рецензия

MediaInfo

Общее
Уникальный идентификатор : 176308729245422033804661500797280337712 (0x84A3D37C03BA1A4B86F43F4D7F383F30)
Полное имя : F:\Филадельфийский эксперимент 2012 BDRip.1080p.2xRus.Eng.mkv
Формат : Matroska
Версия формата : Version 4 / Version 2
Размер файла : 7,00 Гбайт
Продолжительность : 1 ч. 28 м.
Общий поток : 11,3 Мбит/сек
Дата кодирования : UTC 2013-01-18 01:16:16
Программа кодирования : mkvmerge v5.9.0 ('On The Loose') built on Dec 23 2012 14:24:43
Библиотека кодирования : libebml v1.3.0 + libmatroska v1.4.0
Видео
Идентификатор : 1
Формат : AVC
Формат/Информация : Advanced Video Codec
Профиль формата : High@L4.1
Параметр CABAC формата : Да
Параметр ReFrames формата : 4 кадра
Идентификатор кодека : V_MPEG4/ISO/AVC
Продолжительность : 1 ч. 28 м.
Битрейт : 9932 Кбит/сек
Ширина : 1920 пикселей
Высота : 1080 пикселей
Соотношение сторон : 16:9
Режим частоты кадров : Постоянный
Частота кадров : 23,976 кадра/сек
Цветовое пространство : YUV
Субдискретизация насыщенности : 4:2:0
Битовая глубина : 8 бит
Тип развёртки : Прогрессивная
Бит/(Пиксели*Кадры) : 0.200
Размер потока : 6,03 Гбайт (86%)
Заголовок : Goliaf.tv
Библиотека кодирования : x264 core 129 r2230 1cffe9f
Настройки программы : cabac=1 / ref=4 / deblock=1:-3:-3 / analyse=0x3:0x133 / me=umh / subme=10 / psy=1 / psy_rd=1.00:0.10 / mixed_ref=1 / me_range=64 / chroma_me=1 / trellis=2 / 8x8dct=1 / cqm=0 / deadzone=21,11 / fast_pskip=0 / chroma_qp_offset=-3 / threads=12 / lookahead_threads=2 / sliced_threads=0 / nr=0 / decimate=0 / interlaced=0 / bluray_compat=0 / constrained_intra=0 / bframes=8 / b_pyramid=2 / b_adapt=2 / b_bias=0 / direct=3 / weightb=1 / open_gop=0 / weightp=2 / keyint=360 / keyint_min=2 / scenecut=40 / intra_refresh=0 / rc_lookahead=60 / rc=2pass / mbtree=1 / bitrate=9932 / ratetol=1.0 / qcomp=0.70 / qpmin=0 / qpmax=69 / qpstep=4 / cplxblur=20.0 / qblur=0.5 / vbv_maxrate=50000 / vbv_bufsize=45000 / nal_hrd=none / ip_ratio=1.10 / aq=2:1.00
Язык : English
Default : Нет
Forced : Нет
Аудио #1
Идентификатор : 2
Формат : AC-3
Формат/Информация : Audio Coding 3
Расширение режима : CM (complete main)
Параметр Endianness формата : Big
Идентификатор кодека : A_AC3
Продолжительность : 1 ч. 28 м.
Вид битрейта : Постоянный
Битрейт : 192 Кбит/сек
Каналы : 2 канала
Расположение каналов : Front: L R
Частота : 48,0 КГц
Битовая глубина : 16 бит
Метод сжатия : С потерями
Размер потока : 122 Мбайт (2%)
Заголовок : Русский ПМ (Syfy) АС3 2.0 192
Язык : Russian
Default : Да
Forced : Нет
Аудио #2
Идентификатор : 3
Формат : AC-3
Формат/Информация : Audio Coding 3
Расширение режима : CM (complete main)
Параметр Endianness формата : Big
Идентификатор кодека : A_AC3
Продолжительность : 1 ч. 28 м.
Вид битрейта : Постоянный
Битрейт : 384 Кбит/сек
Каналы : 6 каналов
Расположение каналов : Front: L C R, Side: L R, LFE
Частота : 48,0 КГц
Битовая глубина : 16 бит
Метод сжатия : С потерями
Размер потока : 244 Мбайт (3%)
Язык : Russian
Default : Нет
Forced : Нет
Аудио #3
Идентификатор : 4
Формат : DTS
Формат/Информация : Digital Theater Systems
Идентификатор кодека : A_DTS
Продолжительность : 1 ч. 28 м.
Вид битрейта : Постоянный
Битрейт : 755 Кбит/сек
Каналы : 6 каналов
Расположение каналов : Front: L C R, Side: L R, LFE
Частота : 48,0 КГц
Битовая глубина : 16 бит
Метод сжатия : С потерями
Размер потока : 480 Мбайт (7%)
Язык : English
Default : Нет
Forced : Нет

Пример субтитров

1
00:00:06,254 --> 00:00:12,254
Филадельфийский эксперимент
2
00:00:29,655 --> 00:00:31,950
Будь хорошим, Фолкнер.
3
00:00:32,737 --> 00:00:37,531
-Эй, ты можешь припарковать автомобиль Мисс Мур?
-Да, сэр.
4
00:00:39,602 --> 00:00:44,366
Зависит от того, что ты Кэтрин подразумеваешь
под хорошим- мороженое хорошо, как и пицца.
5
00:00:44,781 --> 00:00:49,324
Вниз по улице, в пиццерии,
пицца лучше, чем секс.
6
00:00:49,705 --> 00:00:53,477
Ближе к делу.
Ты говорил мне, что есть успехи в работе?
7
00:00:53,865 --> 00:00:57,943
Я говорю вам, что мы,
и то, что я,
8
00:00:58,349 --> 00:01:02,599
сможем редактировать войны в 21-м веке.
9
00:01:11,666 --> 00:01:15,295
Система на запуск,
мы поставим на испытания автомобиль.
10
00:01:24,239 --> 00:01:30,369
Мой автомобиль?
-Расслабься, это автомобиль компании.
11
00:01:35,555 --> 00:01:38,590
ОК, ребята,
Всем занять свои места.
12
00:01:46,741 --> 00:01:48,910
Команда на включение.
13
00:01:55,073 --> 00:01:57,718
Мощность на 240 процентов.
14
00:02:00,539 --> 00:02:04,220
Тесла 16 единиц и продолжает расти.
-Пуск-гауссовский процесс.
15
00:02:16,568 --> 00:02:22,615
Я думаю, что это безопасно?
-Более-менее. -24 Тесла.
16
00:02:25,658 --> 00:02:29,871
Никакого эффекта.
-Давайте, не сдаемся.
17
00:02:30,819 --> 00:02:32,840
Сейчас.
18
00:02:39,491 --> 00:02:43,432
32 тесла и продолжает расти.
Я надеюсь, вы знаете, что вы делаете.
19
00:02:44,798 --> 00:02:46,814
Абракадабра.
20
00:03:02,959 --> 00:03:06,742
Впечатленны?

Скриншоты


cd Рип дополнительно залит на ОБЛАКО cd2


Last edited by admin on 2016-06-05 17:04; edited 1 time in total
[Profile] [PM]

admin ®

Gender: Male

Longevity: 7 years 2 months

Posts: 4721

Post 18-Jan-2013 04:32 (after 22 days)

[Quote]

Добавлена проф. озвучка
[Profile] [PM]
Quick Reply

Name:

            
Heads necessary to send messages to enable JavaScript
Display posts:    
Reply to topic

Current time is: 21-Nov 11:06

All times are UTC + 3



You cannot post new topics in this forum
You can reply to topics in this forum
You cannot edit your posts in this forum
You cannot delete your posts in this forum
You cannot vote in polls in this forum
You cannot attach files in this forum
You cannot download files in this forum