Связанные Дакотой / Dakota Bound / Únik z okovů (Ллойд А. Симандл / Lloyd A. Simandl) [2001, Канада, Великобритания, Чехия, Фантастика, боевик, постапокалипсис, эротика, DVDRip-AVC] ЛО (Агент Смит ), СТ (Eazin, Stexina),

Reply to topic
 
Author Message

admin ®

Gender: Male

Longevity: 7 years 2 months

Posts: 4721

Post 05-Sep-2012 04:14

[Quote]

Связанные Дакотой / Dakota Bound / Únik z okovů
Страна: Канада, Великобритания, Чехия
Жанр: Фантастика, боевик, постапокалипсис, эротика
Год выпуска: 2001
Продолжительность: 01:32:54
Перевод: Любительский одноголосый Агент Смит (Александр Харченко)
Cубтитры: Русские(Eazin, Stexina)
Оригинальная аудиодорожка: чешскй, английский
Режиссер: Ллойд А. Симандл / Lloyd A. Simandl
В ролях: Fawnia Mondey, Esther Hanuka, Джон Комер, Ева Айхмайерова, Lenka Jelinková, Katerina Cermak, Olga Schmidtova, Elin Spidlová, Дэвид О’Келли, Даниела Крхутова
Описание: В будущем из-за тотальных войн и болезней почти все жители Земли были уничтожены. Цивилизации больше нет. Люди разделились на бандитов и их жертв.Несколько юных учениц одной из частных школ выжили и скрывались в подземном бункере со своей наставницей, думая пережить это безумие.
Прошло много лет, но жизнь на Земле стала еще хуже.Умирая наставница Елена поняла, что жизнь под землей не спасет мир и тогда она велела подросшим и окрепшим своим ученицам найти священную гору и жить там сея в мир крохи счастья и добра, дабы мир стал чище и лучше.Боевые сцены в фильме в равной мере пересекаются с эротическими. А в купе с приятными актрисами, фильм совсем неплохо смотрится
.
Качество видео: DVDRip-AVC
Формат видео: MKV
Видео: x264, 1859 кб/с, 720x544, 25 к/с, 2pass, crf ~ 19
Аудио 1: Русский (МР3, 2 кн, 128 Кбит/с)
Аудио 2: Английский (AC3, 2 кн, 192 Кбит/с)
Аудио 3: Чешский (AC3, 2 кн, 192 Кбит/с)
Субтитры 1: Русские, SRT
Субтитры 2: Русские, VobSub


Релиз

Рип с чешского ДВД5, монтаж и синхр. дорожек- мои (sasha20072007)
Русская озвучка - Агент Смит (Александр Харченко )
Сведение русской дорожки - viruse (Виталий Емельянов)
Субтитры (найдены на subscomru): Eazin, Stexina
Лог кодирования и постеры - в контейнере
[url=http://www.c heck2pic.ru/compare/20488] Сравнение с оригиналом DVD5[/url]
[url=http://www.c heck2pic.ru/compare/20489] Сравнение с рипом в сети[/url]

Дополнительно

Другие названия:
Broken Fate USA (working title)
Missing: Innocence for Sale USA (working title)
White Slave Lovers UK (video title)
Страничка на Кинопоиске
Для удаления и добавления дорожек в mkv используйте бесплатную mkvmerge GUI 5.70

MediaInfo

Общее
Уникальный идентификатор : 178292749883426301173038259897573798346 (0x8621EF4114005245AD0C92A2D6BB71CA)
Полное имя : F:\Связанные Дакотой 1981.x264.DVDRip.sasha20072007.mkv
Формат : Matroska
Версия формата : Version 4 / Version 2
Размер файла : 1,54 Гбайт
Продолжительность : 1 ч. 32 м.
Общий поток : 2375 Кбит/сек
Название фильма : Связанные Дакотой - Dakota Bound aka White Slave Lovers / 2001 / rip by sasha20072007 (2012-08-29)
Дата кодирования : UTC 2010-02-22 21:41:31
Программа кодирования : mkvmerge v5.8.0 ('No Sleep / Pillow') built on Sep 30 2012 10:57:14
Библиотека кодирования : libebml v1.3.0 + libmatroska v1.4.0
Attachment : Yes / Yes / Yes / Yes
Видео
Идентификатор : 1
Формат : AVC
Формат/Информация : Advanced Video Codec
Профиль формата : High@L4.1
Параметр CABAC формата : Да
Параметр ReFrames формата : 8 кадров
Идентификатор кодека : V_MPEG4/ISO/AVC
Продолжительность : 1 ч. 32 м.
Битрейт : 1859 Кбит/сек
Ширина : 720 пикселей
Высота : 544 пикселя
Соотношение сторон : 4:3
Режим частоты кадров : Постоянный
Частота кадров : 25,000 кадров/сек
Цветовое пространство : YUV
Субдискретизация насыщенности : 4:2:0
Битовая глубина : 8 бит
Тип развёртки : Прогрессивная
Бит/(Пиксели*Кадры) : 0.190
Размер потока : 1,18 Гбайт (76%)
Библиотека кодирования : x264 core 125 r2200 999b753
Настройки программы : cabac=1 / ref=8 / deblock=1:-2:-1 / analyse=0x3:0x133 / me=umh / subme=11 / psy=1 / psy_rd=1.00:0.20 / mixed_ref=1 / me_range=24 / chroma_me=1 / trellis=2 / 8x8dct=1 / cqm=0 / deadzone=21,11 / fast_pskip=1 / chroma_qp_offset=-3 / threads=6 / lookahead_threads=1 / sliced_threads=0 / nr=0 / decimate=1 / interlaced=0 / bluray_compat=0 / constrained_intra=0 / bframes=8 / b_pyramid=2 / b_adapt=2 / b_bias=0 / direct=3 / weightb=1 / open_gop=0 / weightp=2 / keyint=220 / keyint_min=22 / scenecut=40 / intra_refresh=0 / rc_lookahead=60 / rc=2pass / mbtree=1 / bitrate=1859 / ratetol=1.0 / qcomp=0.60 / qpmin=0 / qpmax=69 / qpstep=4 / cplxblur=20.0 / qblur=0.5 / vbv_maxrate=17500 / vbv_bufsize=14000 / nal_hrd=none / ip_ratio=1.27 / aq=1:0.80
Default : Да
Forced : Нет
Основные цвета : BT.601 PAL
Характеристики трансфера : BT.470 System B, BT.470 System G
Коэффициенты матрицы : BT.601
Аудио #1
Идентификатор : 2
Формат : MPEG Audio
Версия формата : Version 1
Профиль формата : Layer 3
Идентификатор кодека : A_MPEG/L3
Идентификатор кодека/Подсказка : MP3
Продолжительность : 1 ч. 32 м.
Вид битрейта : Постоянный
Битрейт : 128 Кбит/сек
Каналы : 2 канала
Частота : 48,0 КГц
Метод сжатия : С потерями
Задержка видео : 23 мс.
Размер потока : 85,1 Мбайт (5%)
Заголовок : Русский (Агент Смит (Александр Харченко )
Язык : Russian
Default : Да
Forced : Нет
Аудио #2
Идентификатор : 3
Формат : AC-3
Формат/Информация : Audio Coding 3
Расширение режима : CM (complete main)
Параметр Endianness формата : Big
Идентификатор кодека : A_AC3
Продолжительность : 1 ч. 32 м.
Вид битрейта : Постоянный
Битрейт : 192 Кбит/сек
Каналы : 2 канала
Расположение каналов : Front: L R
Частота : 48,0 КГц
Битовая глубина : 16 бит
Метод сжатия : С потерями
Размер потока : 128 Мбайт (8%)
Язык : English
Default : Нет
Forced : Нет
Аудио #3
Идентификатор : 4
Формат : AC-3
Формат/Информация : Audio Coding 3
Расширение режима : CM (complete main)
Параметр Endianness формата : Big
Идентификатор кодека : A_AC3
Продолжительность : 1 ч. 32 м.
Вид битрейта : Постоянный
Битрейт : 192 Кбит/сек
Каналы : 2 канала
Расположение каналов : Front: L R
Частота : 48,0 КГц
Битовая глубина : 16 бит
Метод сжатия : С потерями
Размер потока : 128 Мбайт (8%)
Язык : Czech
Default : Нет
Forced : Нет
Текст #1
Идентификатор : 5
Формат : VobSub
Идентификатор кодека : S_VOBSUB
Идентификатор кодека/Информация : The same subtitle format used on DVDs
Заголовок : Русский ( Eazin, Stexina) VobSub
Язык : Russian
Default : Да
Forced : Нет
Текст #2
Идентификатор : 6
Формат : UTF-8
Идентификатор кодека : S_TEXT/UTF8
Идентификатор кодека/Информация : UTF-8 Plain Text
Заголовок : Русский ( Eazin, Stexina) srt
Язык : Russian
Default : Нет
Forced : Нет
Меню
00:00:00.000 : :Chapter 01
00:08:41.400 : :Chapter 02
00:17:22.200 : :Chapter 03
00:28:26.400 : :Chapter 04
00:36:06.000 : :Chapter 05
00:45:44.400 : :Chapter 06
00:55:03.600 : :Chapter 07
01:03:21.600 : :Chapter 08
01:12:42.600 : :Chapter 09
01:21:21.600 : :Chapter 10

Скриншоты




Пример субтитров

1
00:00:21,100 --> 00:00:24,070
Всегда надо останавливаться
и прислушиваться. На всякий случай.
2
00:00:24,440 --> 00:00:28,710
На какой еще случай, Кейт?
Мы никогда ничего не видели и не слышали.
3
00:00:28,910 --> 00:00:31,580
Ничего не происходит. Расслабься.
4
00:00:31,810 --> 00:00:32,710
Я пошла.
5
00:01:05,750 --> 00:01:06,980
Чего ты так боишься?
6
00:01:09,450 --> 00:01:10,680
Тут могут быть рейдеры.
7
00:01:11,950 --> 00:01:13,690
А. Ни разу ни одного не видела.
8
00:01:14,720 --> 00:01:18,990
Может сестра просто придумала их,
чтобы нас напугать?
Может их не существует?
9
00:01:20,060 --> 00:01:25,170
За последние три года пропало три девушки.
Что тогда случилось с ними?
10
00:01:26,900 --> 00:01:29,970
Может они сбежали от
надоевших россказней сестры Елены.
11
00:01:33,310 --> 00:01:36,280
Лиза... Ты помнишь как все было...
12
00:01:37,480 --> 00:01:38,910
Как было раньше?
13
00:01:40,180 --> 00:01:44,190
Мне это иногда снится.
Выглядит таким настоящим...
14
00:01:44,220 --> 00:01:45,320
СВЯЗАННЫЕ ДАКОТОЙ
(Dakota Bound, 2001г.)
15
00:01:45,350 --> 00:01:49,960
Центр! Центр! На нас напали.
Повторяю. На нас напали.
16
00:01:50,160 --> 00:01:53,330
Мы под огнем! Ракетная атака!
На нас напали!
17
00:02:31,630 --> 00:02:33,370
Сюда ставьте. Давайте, шевелитесь.
18
00:02:34,974 --> 00:02:35,809
Шевелись!
19
00:02:40,740 --> 00:02:41,910
Отпусти меня!
20
00:03:00,900 --> 00:03:02,700
Залазьте внутрь, дамочки.


Last edited by admin on 2012-10-14 06:03; edited 4 times in total
[Profile] [PM]

Guest

Gender: Unknown

Post 13-Oct-2012 21:17 (after 1 month 8 days)

[Quote]

фильм озвучен
 

admin ®

Gender: Male

Longevity: 7 years 2 months

Posts: 4721

Post 14-Oct-2012 05:50 (after 8 hours)

[Quote]

Торрент перезалит.Добавлена русская озвучка.
P.S. Лучше всего смотреть на оригин. чешском (понятна половина слов) с русскими субтитрами
[Profile] [PM]
Display posts:    
Reply to topic

Current time is: 22-Nov 10:00

All times are UTC + 3



You cannot post new topics in this forum
You cannot reply to topics in this forum
You cannot edit your posts in this forum
You cannot delete your posts in this forum
You cannot vote in polls in this forum
You cannot attach files in this forum
You cannot download files in this forum