Кризис Тысячелетия / Кровавая Маска / Millennium Crisis / Bloodmask (Andrew Bellware / Эндрю Беллвар) [2007 г., фантастика, DVDRip] ПД

Ответить на тему
 
Автор Сообщение

Гость ®

Пол: Не указан

Создавать темы 23-Дек-2012 17:24

[Цитировать]

Кризис Тысячелетия / Кровавая Маска / Millennium Crisis / Bloodmask
Год выпуска: 2007
Страна: США, Braidwood Films
Жанр: фантастика
Продолжительность: 01:24:27
b]Перевод: Профессиональный (двухголосый)
Режиссер: Andrew Bellware / Эндрю Беллвар
В ролях: Клер Стивенсон, Тед Рэйми, Тао Джонс, Олья Хрустич, Дэрил Болинг, Линдси Робертс, Дон Эррауп, Жеф Бетц, Стив Дейгхэн, Аль Делбен
Описание:Много веков назад, пришельцы, злая и сильная нация, сумели спровоцировать межгалактическую войну. Из этого кровопролития они смогли извлечь для себя много пользы.
Теперь, они жаждут повторения истории. Новые пришельцы инициируют террористическую атаку, вовлекая землян в противоборство с обитателями Андромеды…

Примечание:Один из фильмов, "широкоизвестного" режиссера Эндрю Беллвара, известного по таким фильмам категории "B-movie" ( а может даже и "C-movie"), как: "Машина Пандоры" 2004, "Восстание чужих" 2008, "Месть солнца" 2008, "День второй: Битва за Нью-Йорк" 2011, "Земной убийца" 2011, "Восстание андроидов" 2012, и ещё не переведенного, но уже вышедшего на экраны - "Prometheus Trap" 2012.
.
Качество: DVDRip-AVC
Формат: MKV
Видео: x264, 2119 кбит/с, 712x456@840x456, 23.976 к/с, crf=18
Аудио 1: Русский (AC3, 2 ch, 192 Кбит/с)
Аудио 2: Английский (AC3, 2 ch, 192 Кбит/с)
Аудио 3: Немецкий (AC3, 2 ch, 192 Кбит/с)
Работа над релизом:
Рип с ДВД5 - kosmoaelita



ТРЕЙЛЕР..................................................................................................ФИЛЬМ НА РУССКОМ
......

Дополнительно

слоган «The Terran and Andromedean Empires have enjoyed a fragile peace for almost 100 years. That time is about to end.»

Рецензия

Mediainfo

Общее
Уникальный идентификатор : 217298880470136299062553542472571245991 (0xA37A3DF8D1A67C77A370BB0F34CB55A7)
Полное имя : F:\Millennium Crisis 2007.x264.DVDRip.AVC.mkv
Формат : Matroska
Версия формата : Version 4 / Version 2
Размер файла : 1,59 Гбайт
Продолжительность : 1 ч. 24 м.
Общий поток : 2697 Кбит/сек
Название фильма : Millennium Crisis 2007
Дата кодирования : UTC 2015-12-09 10:03:16
Программа кодирования : mkvmerge v6.6.0 ('The Edge Of The In Between') built on Dec 1 2013 17:55:00
Библиотека кодирования : libebml v1.3.0 + libmatroska v1.4.1
Видео
Идентификатор : 1
Формат : AVC
Формат/Информация : Advanced Video Codec
Профиль формата : High@L4.1
Параметр CABAC формата : Да
Параметр ReFrames формата : 10 кадров
Идентификатор кодека : V_MPEG4/ISO/AVC
Продолжительность : 1 ч. 24 м.
Битрейт : 2119 Кбит/сек
Ширина : 712 пикселей
Высота : 456 пикселей
Соотношение сторон : 1,85:1
Режим частоты кадров : Постоянный
Частота кадров : 23,976 кадра/сек
Цветовое пространство : YUV
Субдискретизация насыщенности : 4:2:0
Битовая глубина : 8 бит
Тип развёртки : Прогрессивная
Бит/(Пиксели*Кадры) : 0.272
Размер потока : 1,22 Гбайт (77%)
Заголовок : kosmoaelita
Библиотека кодирования : x264 core 125 r2208 d9d2288
Настройки программы : cabac=1 / ref=10 / deblock=1:-1:-2 / analyse=0x3:0x133 / me=umh / subme=11 / psy=1 / psy_rd=1.20:0.15 / mixed_ref=1 / me_range=24 / chroma_me=1 / trellis=2 / 8x8dct=1 / cqm=0 / deadzone=21,11 / fast_pskip=1 / chroma_qp_offset=-3 / threads=4 / lookahead_threads=1 / sliced_threads=0 / nr=0 / decimate=1 / interlaced=0 / bluray_compat=0 / constrained_intra=0 / bframes=10 / b_pyramid=2 / b_adapt=2 / b_bias=0 / direct=3 / weightb=1 / open_gop=0 / weightp=2 / keyint=220 / keyint_min=22 / scenecut=40 / intra_refresh=0 / rc_lookahead=60 / rc=2pass / mbtree=1 / bitrate=2119 / ratetol=1.0 / qcomp=0.60 / qpmin=0 / qpmax=69 / qpstep=4 / cplxblur=20.0 / qblur=0.5 / vbv_maxrate=17500 / vbv_bufsize=14000 / nal_hrd=none / ip_ratio=1.40 / aq=1:0.90
Default : Да
Forced : Нет
Аудио #1
Идентификатор : 2
Формат : AC-3
Формат/Информация : Audio Coding 3
Расширение режима : CM (complete main)
Параметр Endianness формата : Big
Идентификатор кодека : A_AC3
Продолжительность : 1 ч. 24 м.
Вид битрейта : Постоянный
Битрейт : 192 Кбит/сек
Каналы : 2 канала
Расположение каналов : Front: L R
Частота : 48,0 КГц
Битовая глубина : 16 бит
Метод сжатия : С потерями
Размер потока : 116 Мбайт (7%)
Заголовок : Русский ПД
Язык : Russian
Default : Да
Forced : Нет
Аудио #2
Идентификатор : 3
Формат : AC-3
Формат/Информация : Audio Coding 3
Расширение режима : CM (complete main)
Параметр Endianness формата : Big
Идентификатор кодека : A_AC3
Продолжительность : 1 ч. 24 м.
Вид битрейта : Постоянный
Битрейт : 192 Кбит/сек
Каналы : 2 канала
Расположение каналов : Front: L R
Частота : 48,0 КГц
Битовая глубина : 16 бит
Метод сжатия : С потерями
Размер потока : 116 Мбайт (7%)
Язык : English
Default : Нет
Forced : Нет
Аудио #3
Идентификатор : 4
Формат : AC-3
Формат/Информация : Audio Coding 3
Расширение режима : CM (complete main)
Параметр Endianness формата : Big
Идентификатор кодека : A_AC3
Продолжительность : 1 ч. 24 м.
Вид битрейта : Постоянный
Битрейт : 192 Кбит/сек
Каналы : 2 канала
Расположение каналов : Front: L R
Частота : 48,0 КГц
Битовая глубина : 16 бит
Метод сжатия : С потерями
Размер потока : 116 Мбайт (7%)
Язык : German
Default : Нет
Forced : Нет

Скриншоты














Скринлист

cd Рип дополнительно залит на ОБЛАКО cd2


Последний раз редактировалось: Гость (2012-12-23 17:39), всего редактировалось 1 раз
 

Гость ®

Пол: Не указан

Создавать темы 23-Дек-2012 17:32 (спустя 8 минут)

[Цитировать]

Данное видео взято не с "озона", там слишком квадратная картинка. Звук по мере возможности синхронизирован. Если кому надо будет оригинальная русскоязычная дорожка с "озона", готов поделиться.
PS. Диск на озоне покупать не стоит.
 

admin

Пол: Мужской

Стаж: 5 лет 2 месяца

Сообщений: 4748

Откуда: Україна

Создавать темы 09-Дек-2015 13:43 (спустя 2 года 11 месяцев)

[Цитировать]

Перезалито. Полная версия. Пара минут без перевода
[Профиль] [ЛС]
Показать сообщения:    
Ответить на тему

Текущее время: 24-Ноя 16:47

Часовой пояс: UTC + 3:30



Вы не можете начинать темы
Вы не можете отвечать на сообщения
Вы не можете редактировать свои сообщения
Вы не можете удалять свои сообщения
Вы не можете голосовать в опросах
Вы не можете прикреплять файлы к сообщениям
Вы не можете скачивать файлы