Тюремный корабль / Звёздная каталажка / Prison Ship / Star Slammer (Фред Олен Рэй / Fred Olen Ray) [1986 г., фантастика, комедия, DVDRip-AVC, BDRip-1080p] АО (Сергей Кузнецов), ЛО (Вячеслав Котов)

Reply to topic
DL-List and Torrent activity
Size:  1.66 GB   |    Registered:  6 years 10 months   |    Completed:  14 times

Seeder not seen: 1 year

 
   
 
 
 
Author Message

Guest ®

Gender: Unknown

Post 21-Dec-2012 13:43

[Quote]

Тюремный корабль / Звёздная каталажка / Prison Ship / Star Slammer
Год выпуска: 1986
Страна: США
Жанр: фантастика, комедия
Продолжительность: 01:26:33
Перевод: АО (Сергей Кузнецов), ЛО (Вячеслав Котов)
Режиссер: Фред Олен Рэй / Fred Olen Ray
В ролях: Сэнди Брук, Сьюзэн Стоуки, Росс Хэйген, Мария Гант, Альдо Рэй, Доун Уайлдсмит, Ричард Алан Хенч
Описание: На борту тюремного космического корабля появляется новая узница Тора. Не смирившись с беспределом, который творит главная надзирательница Эксин и её одноглазый помощник Маффин, Тора решает возглавить группу заключённых и организовать побег..
Качество: DVDRip-AVC, BDRip-1080p
Формат: MKV
Видео: x264, 2200 кбит/с, 720x480@849x480, 23.976 к/с, crf=18
Аудио 1: Русский Кузнецов (AC3, 2 ch, 192 Кбит/с)
Аудио 2: Русский Котов (МР3, 1 ch, 128 Кбит/с)
Аудио 3: Английский (AC3, 2 ch, 224 Кбит/с)
Работа над релизом:
Рип с ДВД5 c CG - kosmoaelita



Дополнительно

рейтинг MPAA лицам до 17 лет обязательно присутствие взрослого
слоган «Untamed. Uncaged. Unleashed In Space.»
Also Known As (AKA)
Confusão nas Estrelas Brazil (imdb display title)
Gefangene im Weltraum West Germany
Prison Ship: 2005 USA (working title)
Star Slammer (undefined)
Star Slammer - La Prison des Etoiles France (video title)
Starslammer (undefined)
Starslammer: The Escape USA (video title)
The Adventures of Taura: Prison Ship Star Slammer USA (long title)
С целью экономии средств, транспортное средство вначале фильма было позаимствовано с сериала "Бегство Логана" (Logan's Run (TV))

Рецензия

MediaInfo

Общее
Уникальный идентификатор : 190439589629341954793803839197163018306 (0x8F4554B109EA4B76B04BF3878D73D842)
Полное имя : F:\Тюремный корабль Prison Ship 1986.x264.DVDRip.AVC.mkv
Формат : Matroska
Версия формата : Version 4 / Version 2
Размер файла : 1,66 Гбайт
Продолжительность : 1 ч. 26 м.
Общий поток : 2748 Кбит/сек
Название фильма : Тюремный корабль / Prison Ship / Star Slammer / 1986 / rip by sasha20072007 (2012-12-24)
Дата кодирования : UTC 2012-12-24 07:08:52
Программа кодирования : mkvmerge v5.9.0 ('On The Loose') built on Dec 15 2012 16:39:58
Библиотека кодирования : libebml v1.3.0 + libmatroska v1.4.0
Attachment : Yes / Yes
Видео
Идентификатор : 1
Формат : AVC
Формат/Информация : Advanced Video Codec
Профиль формата : High@L4.1
Параметр CABAC формата : Да
Параметр ReFrames формата : 10 кадров
Идентификатор кодека : V_MPEG4/ISO/AVC
Продолжительность : 1 ч. 26 м.
Битрейт : 2200 Кбит/сек
Ширина : 720 пикселей
Высота : 480 пикселей
Соотношение сторон : 16:9
Соотношение сторон в оригинале : 16:9
Режим частоты кадров : Постоянный
Частота кадров : 23,976 кадра/сек
Стандарт вещания : NTSC
Цветовое пространство : YUV
Субдискретизация насыщенности : 4:2:0
Битовая глубина : 8 бит
Тип развёртки : Прогрессивная
Бит/(Пиксели*Кадры) : 0.266
Размер потока : 1,30 Гбайт (78%)
Библиотека кодирования : x264 core 125 r2208 d9d2288
Настройки программы : cabac=1 / ref=10 / deblock=1:-1:-2 / analyse=0x3:0x133 / me=umh / subme=10 / psy=1 / psy_rd=1.00:0.15 / mixed_ref=1 / me_range=24 / chroma_me=1 / trellis=2 / 8x8dct=1 / cqm=0 / deadzone=21,11 / fast_pskip=1 / chroma_qp_offset=-3 / threads=4 / lookahead_threads=1 / sliced_threads=0 / nr=0 / decimate=1 / interlaced=0 / bluray_compat=0 / constrained_intra=0 / bframes=10 / b_pyramid=2 / b_adapt=2 / b_bias=0 / direct=3 / weightb=1 / open_gop=0 / weightp=2 / keyint=220 / keyint_min=22 / scenecut=40 / intra_refresh=0 / rc_lookahead=60 / rc=2pass / mbtree=1 / bitrate=2200 / ratetol=1.0 / qcomp=0.60 / qpmin=0 / qpmax=69 / qpstep=4 / cplxblur=20.0 / qblur=0.5 / vbv_maxrate=17500 / vbv_bufsize=14000 / nal_hrd=none / ip_ratio=1.40 / aq=1:0.90
Default : Да
Forced : Нет
Аудио #1
Идентификатор : 2
Формат : AC-3
Формат/Информация : Audio Coding 3
Расширение режима : CM (complete main)
Параметр Endianness формата : Big
Идентификатор кодека : A_AC3
Продолжительность : 1 ч. 26 м.
Вид битрейта : Постоянный
Битрейт : 192 Кбит/сек
Каналы : 2 канала
Расположение каналов : Front: L R
Частота : 48,0 КГц
Битовая глубина : 16 бит
Метод сжатия : С потерями
Размер потока : 119 Мбайт (7%)
Заголовок : Русский (С.Кузнецов)
Язык : Russian
Default : Да
Forced : Нет
Аудио #2
Идентификатор : 3
Формат : MPEG Audio
Версия формата : Version 1
Профиль формата : Layer 3
Режим : Joint stereo
Расширение режима : MS Stereo
Идентификатор кодека : A_MPEG/L3
Идентификатор кодека/Подсказка : MP3
Продолжительность : 1 ч. 26 м.
Вид битрейта : Постоянный
Битрейт : 128 Кбит/сек
Каналы : 2 канала
Частота : 48,0 КГц
Метод сжатия : С потерями
Размер потока : 79,2 Мбайт (5%)
Заголовок : Русский (Вячеслав Котов)
Язык : Russian
Default : Нет
Forced : Нет
Аудио #3
Идентификатор : 4
Формат : AC-3
Формат/Информация : Audio Coding 3
Профиль формата : Dolby Digital
Расширение режима : CM (complete main)
Параметр Endianness формата : Big
Идентификатор кодека : A_AC3
Продолжительность : 1 ч. 26 м.
Вид битрейта : Постоянный
Битрейт : 224 Кбит/сек
Каналы : 2 канала
Расположение каналов : Front: L R
Частота : 48,0 КГц
Битовая глубина : 16 бит
Метод сжатия : С потерями
Размер потока : 139 Мбайт (8%)
Язык : English
Default : Нет
Forced : Нет
Меню
00:00:00.000 : :Chapter 01
00:04:20.601 : :Chapter 02
00:14:46.202 : :Chapter 03
00:23:50.103 : :Chapter 04
00:27:13.004 : :Chapter 05
00:35:04.805 : :Chapter 06
00:47:37.805 : :Chapter 07
00:51:19.506 : :Chapter 08
00:52:39.906 : :Chapter 09
00:59:29.306 : :Chapter 10
01:07:24.706 : :Chapter 11
01:18:00.706 : :Chapter 12

Скриншоты










Скриншоты 2











Скринлист

cd Рип дополнительно залит на mail.ru cd2
Тюремный корабль Prison Ship 1986.x264.DVDRip.AVC.mkv.torrent
Torrent: Registered [ 2012-12-24 10:17 ]

Download .torrent

Download

34 KB

Status: checked
Completed: 14 times
Size: 1.66 GB
 
 

Guest ®

Gender: Unknown

Post 24-Dec-2012 10:19 (after 2 days 20 hours)

[Quote]

Торрент перезалит
 

$Shorox

Gender: Male

Longevity: 6 years 11 months

Posts: 1888

Post 24-Oct-2014 09:44 (after 1 year 9 months)

[Quote]

Похоже местные бандиты у Логана тачку отжали.
Бегство Логана / Logan's Run (TV) / Сезон: 1 / Серии: 1-14 (14) (Пол Красны, Ирвинг Дж. Мур) [1977-1978]
Тюремный корабль

Бегство Логана
[Profile] [PM]

admin

Gender: Male

Longevity: 7 years 2 months

Posts: 4721

Post 24-Oct-2014 09:51 (after 7 minutes)

[Quote]

Я эту машину удже в нескольких фильмах видел.
Эти "бандиты" в каком-то гараже ее продержали больше 10 лет смайлик+
[Profile] [PM]

Susanin

Gender: Male

Longevity: 5 years 7 months

Posts: 825

Post 24-Dec-2014 08:14 (after 1 month 30 days)

[Quote]

Отмечены вставки из "Битвы за пределами звёзд".
[Profile] [PM]

Трамвай-фильм

Gender: Male

Longevity: 5 years 3 months

Posts: 1655

Location: Россия

Post 24-Dec-2014 17:38 (after 9 hours)

[Quote]

автомобиль на скринах суперский. Вообще глядя на них вспоминаешь начало 90-х, когда такие "кина" начали крутить по малым каналам местного разлива
[Profile] [PM]
Display posts:    
Reply to topic

Current time is: 20-Nov 08:04

All times are UTC + 3



You cannot post new topics in this forum
You cannot reply to topics in this forum
You cannot edit your posts in this forum
You cannot delete your posts in this forum
You cannot vote in polls in this forum
You cannot attach files in this forum
You can download files in this forum