Человек на шесть миллионов долларов Трилогия / The Six Million Dollar Man / Wine, Women and War / Solid gold kidnapping (Ричард Ирвинг / Richard Irving) [1973, США, фантастика, приключения, DVDRip] ЛО (den904), СТ (sasha20072007, slavnus)

Reply to topic
 
Author Message

admin ®

Gender: Male

Longevity: 7 years

Posts: 4725

Location: Україна

Post 05-Sep-2012 04:09

[Quote]

Человек на шесть миллионов долларов / The Six Million Dollar Man
Страна: США
Жанр: фантастика, приключения
Год выпуска: 1973
Продолжительность: 01:14:12
Перевод: ЛО den904 по субтитрам от (sasha20072007, slavnus, Vargnatt)
Оригинальная аудиодорожка: Английский
Режиссер: Ричард Ирвинг / Richard Irving
В ролях: Ли Мэйджорс Барбара Андерсон Мартин Болсам, Дэррен МакГэвин, Чарльз Робинсон, Айвор Бэрри, Дороти Грин, Энн Уитфилд, Джордж Уоллес, Роберт Корнтуэйт
Описание: Космонавт и летчик-испытатель полковник Стив Остин получает тяжелейшие травмы во время катастрофы экспериментального ракетоплана. Он лишается глаза, одной руки и обеих ног. Служба Стратегических Операций готова заплатить шесть миллионов долларов за специальные бионические протезы, которые должны сделать его быстрее, сильнее и лучше обычного человека. За это он должен стать тайным агентом ССО. Первое проверочное задание уже ждет Стива Остина...
Качество видео: DVDRip
Формат видео: MKV
Видео: x264, 1642 кб/с, 720x544, 23.976 к/с, 1pass, crf =20.5
Аудио 1: Русский ЛО (den904) (AC3, 2 кн, 192 Кбит/с)
Аудио 2: Английский (AC3, 2 кн, 192 Кбит/с)
Субтитры 1: Русские, SRT
Субтитры 2: Русские, VobSub
Субтитры 3: Английские, SRT
Субтитры 4: Английские, VobSub
Работа над релизом:
Релиз kosmoaelita.
Рип с ДВД5 и монтаж sasha20072007
Перевод: Vargnatt
Субтитры: sasha20072007, slavnus
Лог кодирования и постеры - в контейнере
Русская озвучка по заказу kosmoaelita - den904
Спонсор русской озвучки - Андрей Берг



Пример русской озвучки

Дополнительно

Другие названия:
Cyborg: The Six Million Dollar Man (undefined)
Der sechs Millionen Dollar Mann West Germany
High Tech Norway (video box title)
L'homme qui valait trois milliards France
O pyrinikos Superman ton 6.000.000 dollarion Greece (theatrical title)
The Six Million Dollar Man: The Moon and the Desert USA (rerun title)
Страничка на Кинопоиске
Для удаления и добавления дорожек в mkv используйте бесплатную mkvmerge GUI 5.70

MediaInfo

Общее
Уникальный идентификатор : 235421306711718945074080201238791917031 (0xB11C7E91EF49E1E68FCD3EB7A2450DE7)
Полное имя : F:\The Six Million Dollar Man Trilogy 1973.x264.DVDRip\1 The Six Million Dollar Man 1973.x264.DVDRip.Rus.kosmoaelita.mkv
Формат : Matroska
Версия формата : Version 4 / Version 2
Размер файла : 1,07 Гбайт
Продолжительность : 1 ч. 14 м.
Общий поток : 2062 Кбит/сек
Название фильма : The Six Million Dollar Man / 1973 / rip by sasha20072007 (kosmoaelita
Дата кодирования : UTC 2015-04-03 18:10:59
Программа кодирования : mkvmerge v6.6.0 ('The Edge Of The In Between') built on Dec 1 2013 17:55:00
Библиотека кодирования : libebml v1.3.0 + libmatroska v1.4.1
Attachements : Постер.jpg
Видео
Идентификатор : 1
Формат : AVC
Формат/Информация : Advanced Video Codec
Профиль формата : High@L4.1
Параметр CABAC формата : Да
Параметр ReFrames формата : 10 кадров
Идентификатор кодека : V_MPEG4/ISO/AVC
Продолжительность : 1 ч. 14 м.
Битрейт : 1637 Кбит/сек
Ширина : 720 пикселей
Высота : 540 пикселей
Соотношение сторон : 4:3
Режим частоты кадров : Постоянный
Частота кадров : 23,976 кадра/сек
Цветовое пространство : YUV
Субдискретизация насыщенности : 4:2:0
Битовая глубина : 8 бит
Тип развёртки : Прогрессивная
Бит/(Пиксели*Кадры) : 0.176
Размер потока : 869 Мбайт (79%)
Заголовок : kosmoaelita
Библиотека кодирования : x264 core 120 r2164 da19765
Настройки программы : cabac=1 / ref=10 / deblock=1:-2:-2 / analyse=0x3:0x133 / me=umh / subme=11 / psy=1 / psy_rd=1.00:0.20 / mixed_ref=1 / me_range=24 / chroma_me=1 / trellis=2 / 8x8dct=1 / cqm=0 / deadzone=21,11 / fast_pskip=1 / chroma_qp_offset=-3 / threads=12 / sliced_threads=0 / nr=0 / decimate=1 / interlaced=0 / bluray_compat=0 / constrained_intra=0 / bframes=10 / b_pyramid=2 / b_adapt=2 / b_bias=0 / direct=3 / weightb=1 / open_gop=0 / weightp=2 / keyint=220 / keyint_min=22 / scenecut=40 / intra_refresh=0 / rc_lookahead=60 / rc=crf / mbtree=1 / crf=21.0 / qcomp=0.60 / qpmin=0 / qpmax=69 / qpstep=4 / vbv_maxrate=17500 / vbv_bufsize=14000 / crf_max=0.0 / nal_hrd=none / ip_ratio=1.27 / aq=1:1.00
Default : Да
Forced : Нет
Аудио #1
Идентификатор : 2
Формат : AC-3
Формат/Информация : Audio Coding 3
Расширение режима : CM (complete main)
Параметр Endianness формата : Big
Идентификатор кодека : A_AC3
Продолжительность : 1 ч. 14 м.
Вид битрейта : Постоянный
Битрейт : 192 Кбит/сек
Каналы : 2 канала
Расположение каналов : Front: L R
Частота : 48,0 КГц
Битовая глубина : 16 бит
Метод сжатия : С потерями
Размер потока : 102 Мбайт (9%)
Заголовок : Русский ЛО (den904 для kosmoaelita.com) - поддержка А.Берг
Язык : Russian
Default : Да
Forced : Нет
Аудио #2
Идентификатор : 3
Формат : AC-3
Формат/Информация : Audio Coding 3
Расширение режима : CM (complete main)
Параметр Endianness формата : Big
Идентификатор кодека : A_AC3
Продолжительность : 1 ч. 14 м.
Вид битрейта : Постоянный
Битрейт : 192 Кбит/сек
Каналы : 2 канала
Расположение каналов : Front: L R
Частота : 48,0 КГц
Битовая глубина : 16 бит
Метод сжатия : С потерями
Размер потока : 102 Мбайт (9%)
Язык : English
Default : Нет
Forced : Нет
Текст #1
Идентификатор : 4
Формат : VobSub
Режим смешивания : zlib
Идентификатор кодека : S_VOBSUB
Идентификатор кодека/Информация : The same subtitle format used on DVDs
Заголовок : Русский (sasha20072007,slavnus,Vargnatt) VobSub
Язык : Russian
Default : Да
Forced : Нет
Текст #2
Идентификатор : 5
Формат : UTF-8
Идентификатор кодека : S_TEXT/UTF8
Идентификатор кодека/Информация : UTF-8 Plain Text
Заголовок : Русский (sasha20072007,slavnus,Vargnatt) srt
Язык : Russian
Default : Нет
Forced : Нет
Текст #3
Идентификатор : 6
Формат : VobSub
Режим смешивания : zlib
Идентификатор кодека : S_VOBSUB
Идентификатор кодека/Информация : The same subtitle format used on DVDs
Заголовок : VobSub
Язык : English
Default : Нет
Forced : Нет
Текст #4
Идентификатор : 7
Формат : UTF-8
Идентификатор кодека : S_TEXT/UTF8
Идентификатор кодека/Информация : UTF-8 Plain Text
Заголовок : srt
Язык : English
Default : Нет
Forced : Нет
Меню
00:00:00.000 : :Chapter 01
00:12:40.901 : :Chapter 02
00:24:25.735 : :Chapter 03
00:37:26.536 : :Chapter 04
00:48:49.536 : :Chapter 05
01:05:20.970 : :Chapter 06
01:13:37.304 : :Chapter 07
01:14:07.738 : :Chapter 08

Скриншоты




Пример субтитров

1
00:00:23,828 --> 00:00:26,551
"КИБОРГ -
2
00:00:26,552 --> 00:00:35,848
ЧЕЛОВЕК, ЧАСТИ ТЕЛА КОТОРОГО
В ПОЛНОМ ОБЪЁМЕ ЗАМЕНЕНЫ
3
00:00:35,849 --> 00:00:42,135
НА МЕХАНИЧЕСКИЕ, ВЫПОЛНЯЩИЕ
ТЕ ЖЕ САМЫЕ ФУНКЦИИ".
4
00:01:24,798 --> 00:01:26,197
Трейлер пуст, сэр.
5
00:01:26,266 --> 00:01:27,528
Где его черти носят?
6
00:01:27,601 --> 00:01:28,932
Почти семь часов.
7
00:01:29,002 --> 00:01:30,560
Джентльмены, наверное,
есть веская причина.
8
00:01:30,637 --> 00:01:31,695
Слушай сюда!
9
00:01:31,772 --> 00:01:35,071
Если Остин не появится через две
минуты, помощи от меня не ждите.
10
00:01:35,142 --> 00:01:37,133
Мы тут ждём,
а он где-то прохлаждается!
11
00:01:37,210 --> 00:01:39,405
Генерал.
12
00:01:42,616 --> 00:01:44,584
Что за шутки?
13
00:01:44,651 --> 00:01:47,381
Что он о себе возомнил?
14
00:01:50,651 --> 00:01:53,381
ЧЕЛОВЕК НА ШЕСТЬ
МИЛЛИОНОВ ДОЛЛАРОВ
(1973 г.)
15
00:01:55,651 --> 00:01:59,381
Первая часть трилогии
"The Six Million Dollar Man"
16
00:02:01,234 --> 00:02:02,360
Здорово, Чарли! Как дела?
---------------------------------------------------------------------------------------------------------------------------------------------------------
Вино, женщины и война / Wine, Women and War
Страна: США
Жанр: фантастика, приключения
Год выпуска: 1973
Продолжительность: 01:13:52
Перевод: ЛО den904 по субтитрам от (sasha20072007, slavnus, Н.Лопатинская)
Оригинальная аудиодорожка: Английский
Режиссер: Русс Мейберри / Russ Mayberry
В ролях: Ли Мэйджорс Барбара Андерсон Мартин Болсам, Дэррен МакГэвин, Чарльз Робинсон, Айвор Бэрри, Дороти Грин, Энн Уитфилд, Джордж Уоллес, Роберт Корнтуэйт
Описание: Стив Остин получает тяжелейшие травмы во время катастрофы экспериментального ракетоплана. Он лишается глаза, одной руки и обеих ног. Служба Стратегических Операций готова заплатить шесть миллионов долларов за специальные бионические протезы, которые должны сделать его быстрее, сильнее и лучше обычного человека. За это он должен стать тайным агентом ССО. Новое задание Стива Остина на Багамах вместе с русским разведчиком...
Качество видео: DVDRip
Формат видео: MKV
Видео: x264, 1443 кб/с, 720x544, 23.976 к/с, 1pass, crf =20.5
Аудио 1: Русский ЛО (den904) (AC3, 2 кн, 192 Кбит/с)
Аудио 2: Английский (AC3, 2 кн, 192 Кбит/с)
Субтитры 1: Русские, SRT
Субтитры 2: Русские, VobSub
Субтитры 3: Английские, SRT
Субтитры 4: Английские, VobSub


Пример русской озвучки

Работа над релизом:
Релиз kosmoaelita.
Рип с ДВД5 и монтаж sasha20072007
Перевод: Н.Лопатинская
Субтитры: sasha20072007, slavnus
Лог кодирования и постеры - в контейнере
Русская озвучка по заказу kosmoaelita - den904
Спонсор русской озвучки - Андрей Берг

Дополнительно

Другие названия:
Der sechs Millionen Dollar Mann - Der Waffenschieber West Germany
Vin, vacances et vahinés France
Wine, Women and War USA (short title)
Для удаления и добавления дорожек в mkv используйте бесплатную mkvmerge GUI 5.70

MediaInfo

Общее
Уникальный идентификатор : 240107299814203969233928685072787673274 (0xB4A2FBDE1B0EB5119708B481605B90BA)
Полное имя : F:\The Six Million Dollar Man Trilogy 1973.x264.DVDRip\2 Wine, Women and War 1973.x264.DVDRip.Rus.kosmoaelita.mkv
Формат : Matroska
Версия формата : Version 4 / Version 2
Размер файла : 981 Мбайт
Продолжительность : 1 ч. 13 м.
Общий поток : 1857 Кбит/сек
Название фильма : Wine, Women and War Part 2 / 1973 / Вино, женщина и война / rip by sasha20072007 (kosmoaelita)
Дата кодирования : UTC 2015-04-17 19:03:23
Программа кодирования : mkvmerge v6.6.0 ('The Edge Of The In Between') built on Dec 1 2013 17:55:00
Библиотека кодирования : libebml v1.3.0 + libmatroska v1.4.1
Attachements : WineWomenAndWarNovel.jpg / Wine, Women and War_DVD_CG_T01111111111.mkv.encoding.log
Видео
Идентификатор : 1
Формат : AVC
Формат/Информация : Advanced Video Codec
Профиль формата : High@L4.1
Параметр CABAC формата : Да
Параметр ReFrames формата : 10 кадров
Идентификатор кодека : V_MPEG4/ISO/AVC
Продолжительность : 1 ч. 13 м.
Битрейт : 1436 Кбит/сек
Ширина : 720 пикселей
Высота : 552 пикселя
Соотношение сторон : 4:3
Режим частоты кадров : Постоянный
Частота кадров : 23,976 кадра/сек
Цветовое пространство : YUV
Субдискретизация насыщенности : 4:2:0
Битовая глубина : 8 бит
Тип развёртки : Прогрессивная
Бит/(Пиксели*Кадры) : 0.151
Размер потока : 759 Мбайт (77%)
Заголовок : kosmoaelita.com
Библиотека кодирования : x264 core 120 r2164 da19765
Настройки программы : cabac=1 / ref=10 / deblock=1:-2:-2 / analyse=0x3:0x133 / me=umh / subme=11 / psy=1 / psy_rd=1.00:0.18 / mixed_ref=1 / me_range=24 / chroma_me=1 / trellis=2 / 8x8dct=1 / cqm=0 / deadzone=21,11 / fast_pskip=1 / chroma_qp_offset=-3 / threads=12 / sliced_threads=0 / nr=0 / decimate=1 / interlaced=0 / bluray_compat=0 / constrained_intra=0 / bframes=10 / b_pyramid=2 / b_adapt=2 / b_bias=0 / direct=3 / weightb=1 / open_gop=0 / weightp=2 / keyint=220 / keyint_min=22 / scenecut=40 / intra_refresh=0 / rc_lookahead=60 / rc=crf / mbtree=1 / crf=20.5 / qcomp=0.60 / qpmin=0 / qpmax=69 / qpstep=4 / vbv_maxrate=17500 / vbv_bufsize=14000 / crf_max=0.0 / nal_hrd=none / ip_ratio=1.25 / aq=1:0.90
Default : Да
Forced : Нет
Аудио #1
Идентификатор : 2
Формат : AC-3
Формат/Информация : Audio Coding 3
Расширение режима : CM (complete main)
Параметр Endianness формата : Big
Идентификатор кодека : A_AC3
Продолжительность : 1 ч. 13 м.
Вид битрейта : Постоянный
Битрейт : 192 Кбит/сек
Каналы : 2 канала
Расположение каналов : Front: L R
Частота : 48,0 КГц
Битовая глубина : 16 бит
Метод сжатия : С потерями
Размер потока : 101 Мбайт (10%)
Заголовок : Русский ЛО (den904 для kosmoaelita.com) - поддержка А.Берг
Язык : Russian
Default : Да
Forced : Нет
Аудио #2
Идентификатор : 3
Формат : AC-3
Формат/Информация : Audio Coding 3
Расширение режима : CM (complete main)
Параметр Endianness формата : Big
Идентификатор кодека : A_AC3
Продолжительность : 1 ч. 13 м.
Вид битрейта : Постоянный
Битрейт : 192 Кбит/сек
Каналы : 2 канала
Расположение каналов : Front: L R
Частота : 48,0 КГц
Битовая глубина : 16 бит
Метод сжатия : С потерями
Размер потока : 101 Мбайт (10%)
Язык : English
Default : Нет
Forced : Нет
Текст #1
Идентификатор : 4
Формат : VobSub
Режим смешивания : zlib
Идентификатор кодека : S_VOBSUB
Идентификатор кодека/Информация : The same subtitle format used on DVDs
Заголовок : Русский (sasha20072007,slavnus,Лопатинская) VobSub
Язык : Russian
Default : Да
Forced : Нет
Текст #2
Идентификатор : 5
Формат : UTF-8
Идентификатор кодека : S_TEXT/UTF8
Идентификатор кодека/Информация : UTF-8 Plain Text
Заголовок : Русский (sasha20072007,slavnus,Лопатинская) srt
Язык : Russian
Default : Нет
Forced : Нет
Текст #3
Идентификатор : 6
Формат : VobSub
Режим смешивания : zlib
Идентификатор кодека : S_VOBSUB
Идентификатор кодека/Информация : The same subtitle format used on DVDs
Язык : English
Default : Нет
Forced : Нет
Текст #4
Идентификатор : 7
Формат : UTF-8
Идентификатор кодека : S_TEXT/UTF8
Идентификатор кодека/Информация : UTF-8 Plain Text
Язык : English
Default : Нет
Forced : Нет
Меню
00:00:00.000 : :Chapter 01
00:01:13.634 : :Chapter 02
00:12:54.535 : :Chapter 03
00:22:45.702 : :Chapter 04
00:38:44.202 : :Chapter 05
00:48:09.636 : :Chapter 06
01:03:08.903 : :Chapter 07
01:12:56.003 : :Chapter 08
01:13:47.403 : :Chapter 09

Скриншоты


Пример субтитров

1
00:00:24,805 --> 00:00:27,797
Центр управления полетами.
Стив, что там? Что случилось?
2
00:00:28,608 --> 00:00:30,599
Я думал, ты мне скажешь.
3
00:00:33,513 --> 00:00:34,571
Он жив.
4
00:00:34,648 --> 00:00:38,982
Потерял руку, обе ноги и один глаз.
Но он жив.
5
00:00:39,052 --> 00:00:42,510
Не думаю, что в таком состоянии
он захочет жить.
6
00:00:42,589 --> 00:00:45,251
Он сможет стать чем-то большим,
чем был раньше.
7
00:00:45,325 --> 00:00:47,589
Мы можем вживить ему протезы.
8
00:00:47,661 --> 00:00:49,253
Не важно сколько это будет стоить,
но мы его вытащим.
9
00:00:53,233 --> 00:00:56,999
« Он мужчина «
« на шесть миллионов долларов «
10
00:00:57,070 --> 00:01:00,870
« Он мужчина «
« на шесть миллионов долларов
11
00:01:00,941 --> 00:01:03,671
« Поймай его, если сможешь «
« побей его, если сможешь «
12
00:01:03,744 --> 00:01:06,872
« Полюби его, если сможешь «
13
00:01:06,947 --> 00:01:11,884
« Ведь он мужчина «
« на шесть миллионов долларов
14
00:01:14,792 --> 00:01:20,000
Вторая часть трилогии
The Six Million Dollar Man -
15
00:01:20,792 --> 00:01:24,752
ВИНО,ЖЕНЩИНЫ И ВОЙНА
(Wine, Women and War, 1973)
----------------------------------------------------------------------------------------------------------------------------------------------------------
Похищение золота / Solid gold kidnapping
Страна: США
Жанр: фантастика, приключения
Год выпуска: 1973
Продолжительность: 01:13:47
Перевод: Субтитры (sasha20072007, slavnus, Н.Лопатинская)
Cубтитры: Русские, английские
Оригинальная аудиодорожка: Английский
Режиссер: Русс Мейберри / Russ Mayberry
В ролях: Ли Мэйджорс Барбара Андерсон Мартин Болсам, Дэррен МакГэвин, Чарльз Робинсон, Айвор Бэрри, Дороти Грин, Энн Уитфилд, Джордж Уоллес, Роберт Корнтуэйт
Описание: Космонавт и летчик-испытатель полковник Стив Остин получает тяжелейшие травмы во время катастрофы экспериментального ракетоплана. Он лишается глаза, одной руки и обеих ног. Служба Стратегических Операций готова заплатить шесть миллионов долларов за специальные бионические протезы, которые должны сделать его быстрее, сильнее и лучше обычного человека. За это он должен стать тайным агентом ССО. Новое задание Стива Остина - не допустить кражи золотого запаса США...
Качество видео: DVDRip
Формат видео: MKV
Видео: x264, 1614 кб/с, 720x544, 23.976 к/с, 1pass, crf =20.5
Аудио 1: Русский ЛО (den904) (AC3, 2 кн, 192 Кбит/с)
Аудио 2: Английский (AC3, 2 кн, 192 Кбит/с)
Субтитры 1: Русские, SRT
Субтитры 2: Русские, VobSub
Субтитры 3: Английские, SRT
Субтитры 4: Английские, VobSub

Пример русской озвучки

Работа над релизом:
Релиз kosmoaelita.
Рип с ДВД5 и монтаж sasha20072007
Перевод: Н.Лопатинская
Субтитры: sasha20072007, slavnus
Лог кодирования и постеры - в контейнере
Русская озвучка по заказу kosmoaelita - den904
Спонсор русской озвучки - Андрей Берг

Дополнительно

Другие названия:
Der sechs Millionen Dollar Mann - Das Erpressersyndikat West Germany
Solid Gold Kidnapping USA (short title)
Для удаления и добавления дорожек в mkv используйте бесплатную mkvmerge GUI 5.70

MediaInfo

Общее
Уникальный идентификатор : 219451938978175996486107893065042090842 (0xA518E7F3C1DD455EB26E6FCD94E7DB5A)
Полное имя : F:\The Six Million Dollar Man Trilogy 1973.x264.DVDRip\3 Solid gold kidnapping 1973.x264.DVDRip.Rus.kosmoaelita.mkv
Формат : Matroska
Версия формата : Version 4 / Version 2
Размер файла : 1,05 Гбайт
Продолжительность : 1 ч. 13 м.
Общий поток : 2035 Кбит/сек
Название фильма : The Six Million Dollar Man / Solid gold kidnapping Part 3 / Похищение золота / 1973 / rip by sasha20072007 (kosmoaelita)
Дата кодирования : UTC 2015-04-21 15:48:01
Программа кодирования : mkvmerge v6.6.0 ('The Edge Of The In Between') built on Dec 1 2013 17:55:00
Библиотека кодирования : libebml v1.3.0 + libmatroska v1.4.1
Attachements : 0Постер.jpg / solid gold kidnapping_DVD_CG p3_T01ПППП.mkv.encoding.log
Видео
Идентификатор : 1
Формат : AVC
Формат/Информация : Advanced Video Codec
Профиль формата : High@L4.1
Параметр CABAC формата : Да
Параметр ReFrames формата : 10 кадров
Идентификатор кодека : V_MPEG4/ISO/AVC
Продолжительность : 1 ч. 13 м.
Битрейт : 1610 Кбит/сек
Ширина : 720 пикселей
Высота : 548 пикселей
Соотношение сторон : 4:3
Режим частоты кадров : Постоянный
Частота кадров : 23,976 кадра/сек
Цветовое пространство : YUV
Субдискретизация насыщенности : 4:2:0
Битовая глубина : 8 бит
Тип развёртки : Прогрессивная
Бит/(Пиксели*Кадры) : 0.170
Размер потока : 851 Мбайт (79%)
Заголовок : kosmoaelita.com
Библиотека кодирования : x264 core 120 r2164 da19765
Настройки программы : cabac=1 / ref=10 / deblock=1:-2:-2 / analyse=0x3:0x133 / me=umh / subme=11 / psy=1 / psy_rd=1.00:0.18 / mixed_ref=1 / me_range=24 / chroma_me=1 / trellis=2 / 8x8dct=1 / cqm=0 / deadzone=21,11 / fast_pskip=1 / chroma_qp_offset=-3 / threads=12 / sliced_threads=0 / nr=0 / decimate=1 / interlaced=0 / bluray_compat=0 / constrained_intra=0 / bframes=10 / b_pyramid=2 / b_adapt=2 / b_bias=0 / direct=3 / weightb=1 / open_gop=0 / weightp=2 / keyint=220 / keyint_min=22 / scenecut=40 / intra_refresh=0 / rc_lookahead=60 / rc=crf / mbtree=1 / crf=20.5 / qcomp=0.60 / qpmin=0 / qpmax=69 / qpstep=4 / vbv_maxrate=17500 / vbv_bufsize=14000 / crf_max=0.0 / nal_hrd=none / ip_ratio=1.25 / aq=1:0.90
Default : Да
Forced : Нет
Аудио #1
Идентификатор : 2
Формат : AC-3
Формат/Информация : Audio Coding 3
Расширение режима : CM (complete main)
Параметр Endianness формата : Big
Идентификатор кодека : A_AC3
Продолжительность : 1 ч. 13 м.
Вид битрейта : Постоянный
Битрейт : 192 Кбит/сек
Каналы : 2 канала
Расположение каналов : Front: L R
Частота : 48,0 КГц
Битовая глубина : 16 бит
Метод сжатия : С потерями
Размер потока : 101 Мбайт (9%)
Заголовок : Русский ЛО (den904 для kosmoaelita.com) - поддержка А.Берг
Язык : Russian
Default : Да
Forced : Нет
Аудио #2
Идентификатор : 3
Формат : AC-3
Формат/Информация : Audio Coding 3
Расширение режима : CM (complete main)
Параметр Endianness формата : Big
Идентификатор кодека : A_AC3
Продолжительность : 1 ч. 13 м.
Вид битрейта : Постоянный
Битрейт : 192 Кбит/сек
Каналы : 2 канала
Расположение каналов : Front: L R
Частота : 48,0 КГц
Битовая глубина : 16 бит
Метод сжатия : С потерями
Размер потока : 101 Мбайт (9%)
Язык : English
Default : Нет
Forced : Нет
Текст #1
Идентификатор : 4
Формат : VobSub
Режим смешивания : zlib
Идентификатор кодека : S_VOBSUB
Идентификатор кодека/Информация : The same subtitle format used on DVDs
Заголовок : Русский (sasha20072007,slavnus,Лопатинская) VobSub
Язык : Russian
Default : Да
Forced : Нет
Текст #2
Идентификатор : 5
Формат : UTF-8
Идентификатор кодека : S_TEXT/UTF8
Идентификатор кодека/Информация : UTF-8 Plain Text
Заголовок : Русский (sasha20072007,slavnus,Лопатинская) srt
Язык : Russian
Default : Нет
Forced : Нет
Текст #3
Идентификатор : 6
Формат : VobSub
Режим смешивания : zlib
Идентификатор кодека : S_VOBSUB
Идентификатор кодека/Информация : The same subtitle format used on DVDs
Язык : English
Default : Нет
Forced : Нет
Текст #4
Идентификатор : 7
Формат : UTF-8
Идентификатор кодека : S_TEXT/UTF8
Идентификатор кодека/Информация : UTF-8 Plain Text
Язык : English
Default : Нет
Forced : Нет
Меню
00:00:00.000 : :Chapter 01
00:01:12.667 : :Chapter 02
00:26:52.867 : :Chapter 03
00:37:45.401 : :Chapter 04
00:50:56.568 : :Chapter 05
01:04:45.235 : :Chapter 06
01:13:08.602 : :Chapter 07
01:13:42.869 : :Chapter 08

Скриншоты


Пример субтитров

75
00:16:29,735 --> 00:16:31,726
Мои поздравления.
176
00:16:33,506 --> 00:16:34,871
Джулиан, что ты здесь делаешь?
177
00:16:35,474 --> 00:16:39,808
Прекрасная операция, Роджер.
Все прошло как по маслу.
178
00:16:39,879 --> 00:16:41,506
И всего лишь один труп.
179
00:16:41,580 --> 00:16:43,377
Труп? Кто?
180
00:16:43,449 --> 00:16:45,440
Ты.
181
00:16:51,791 --> 00:16:52,917
Один мертв...
182
00:16:52,992 --> 00:16:55,859
Остался еще один
183
00:17:00,533 --> 00:17:02,262
Ты за мной следишь?
184
00:17:02,335 --> 00:17:04,326
Просто любуюсь твоей фигурой.
185
00:17:15,848 --> 00:17:17,475
Идеальная.
186
00:17:17,550 --> 00:17:19,381
Что?
187
00:17:19,452 --> 00:17:20,919
Твоя фигура.
188
00:17:20,986 --> 00:17:24,649
Ты часто бываешь в Аспене?
189
00:17:24,724 --> 00:17:27,056
Пытаюсь приезжать так часто, как могу.
190
00:17:30,563 --> 00:17:32,588
Неправильно набрали номер, я знаю.
191
00:17:32,665 --> 00:17:34,997
Это займет всего минуту.
cd Рип дополнительно залит на mail.ru cd2


Last edited by admin on 2015-04-21 18:56; edited 15 times in total
[Profile] [PM]

admin ®

Gender: Male

Longevity: 7 years

Posts: 4725

Location: Україна

Post 03-Apr-2015 21:48 (after 2 years 6 months)

[Quote]

Добавлена русская озвучка первой части
[Profile] [PM]

admin ®

Gender: Male

Longevity: 7 years

Posts: 4725

Location: Україна

Post 17-Apr-2015 21:23 (after 13 days)

[Quote]

Добавлена русская озвучка второй части
[Profile] [PM]

Трамвай-фильм

Gender: Male

Longevity: 5 years 1 month

Posts: 1532

Location: Россия

Post 18-Apr-2015 22:06 (after 1 day)

[Quote]

будет свободное время надо будет посмотреть.
[Profile] [PM]

admin ®

Gender: Male

Longevity: 7 years

Posts: 4725

Location: Україна

Post 18-Apr-2015 22:23 (after 16 minutes)

[Quote]

Обычный шпионский детектив
[Profile] [PM]

Трамвай-фильм

Gender: Male

Longevity: 5 years 1 month

Posts: 1532

Location: Россия

Post 18-Apr-2015 22:26 (after 3 minutes)

[Quote]

10433Обычный шпионский детектив
значит фильм о будущем научной фантастики врал.
[Profile] [PM]

admin ®

Gender: Male

Longevity: 7 years

Posts: 4725

Location: Україна

Post 18-Apr-2015 22:30 (after 4 minutes)

[Quote]

Там после еще несколькосезонов сериала про того же Остина наштамповали
[Profile] [PM]

Трамвай-фильм

Gender: Male

Longevity: 5 years 1 month

Posts: 1532

Location: Россия

Post 18-Apr-2015 23:04 (after 33 minutes)

[Quote]

10435Там после еще несколькосезонов сериала про того же Остина наштамповали
корову доят, пока она не сдохнет.
[Profile] [PM]

admin ®

Gender: Male

Longevity: 7 years

Posts: 4725

Location: Україна

Post 21-Apr-2015 18:35 (after 2 days 19 hours)

[Quote]

Добавлена озвучка заключительной части
[Profile] [PM]

Guest

Gender: Unknown

Post 22-Apr-2015 00:59 (after 6 hours)

[Quote]

По-моему стоит посмотреть хотя бы ради бегущего на фоне подлодки с ядерным грибом мужика. Хотя конечно всё это клоны Бонда. Мне лично фильм понравился - динамичный такой боевичок про мужика с механической рукой, ногами и электронным глазом.
 
Display posts:    
Reply to topic

Current time is: 18-Sep 08:16

All times are UTC + 3



You cannot post new topics in this forum
You cannot reply to topics in this forum
You cannot edit your posts in this forum
You cannot delete your posts in this forum
You cannot vote in polls in this forum
You cannot attach files in this forum
You cannot download files in this forum