Человек на шесть миллионов долларов Трилогия / The Six Million Dollar Man / Wine, Women and War / Solid gold kidnapping (Ричард Ирвинг / Richard Irving) [1973, США, фантастика, приключения, BDRip-1080p] ЛО (den904), СТ (kosmoaelita, slavnus)

Reply to topic
 
Author Message

admin ®

Gender: Male

Longevity: 9 years

Posts: 4772

Post 05-Sep-2012 04:09

[Quote]

Человек на шесть миллионов долларов / The Six Million Dollar Man
Страна: США
Жанр: фантастика, приключения
Год выпуска: 1973
Продолжительность: 01:14:09
Перевод: ЛО den904 по субтитрам от (kosmoaelita, slavnus, Vargnatt)
Оригинальная аудиодорожка: Английский
Режиссер: Ричард Ирвинг / Richard Irving
В ролях: Ли Мэйджорс Барбара Андерсон Мартин Болсам, Дэррен МакГэвин, Чарльз Робинсон, Айвор Бэрри, Дороти Грин, Энн Уитфилд, Джордж Уоллес, Роберт Корнтуэйт
Описание: Космонавт и летчик-испытатель полковник Стив Остин получает тяжелейшие травмы во время катастрофы экспериментального ракетоплана. Он лишается глаза, одной руки и обеих ног. Служба Стратегических Операций готова заплатить шесть миллионов долларов за специальные бионические протезы, которые должны сделать его быстрее, сильнее и лучше обычного человека. За это он должен стать тайным агентом ССО. Первое проверочное задание уже ждет Стива Остина...
Качество видео: BDRip-1080p
Формат видео: MKV
Видео: x264, 3030 кб/с, 1464x1080, 23.976 к/с
Аудио 1: Русский ЛО (den904) (AC3, 2 кн, 384 Кбит/с)
Аудио 2: Английский (AC3, 2 кн, 384 Кбит/с)
Субтитры 1: Русские, SRT
Субтитры 2: Английские, SRT
Работа над релизом:
Релиз kosmoaelita.
Рип с немецкого BD50 и монтаж kosmoaelita
Перевод: Vargnatt
Субтитры: kosmoaelita, slavnus
Русская озвучка по заказу kosmoaelita - den904
Спонсор русской озвучки - Андрей Берг



Пример русской озвучки

Дополнительно

Другие названия:
Cyborg: The Six Million Dollar Man (undefined)
Der sechs Millionen Dollar Mann West Germany
High Tech Norway (video box title)
L'homme qui valait trois milliards France
O pyrinikos Superman ton 6.000.000 dollarion Greece (theatrical title)
The Six Million Dollar Man: The Moon and the Desert USA (rerun title)
Страничка на Кинопоиске

MediaInfo

Общее
Уникальный идентификатор : 170403612006915605286185229402112266151 (0x80328AB9EE68E9759C6A069FEFB40FA7)
Полное имя : The Six Million Dollar Man Trilogy 1973.x264.DVDRip\1 The Six Million Dollar Man 1973.x264.BDRip.1080p.Rus.kosmoaelita.mkv
Формат : Matroska
Версия формата : Version 4
Размер файла : 1,97 Гбайт
Продолжительность : 1 ч. 14 м.
Общий поток : 3805 Кбит/сек
Название фильма : The Six Million Dollar Man / 1973 / релиз kosmoaelita
Дата кодирования : UTC 2020-11-17 19:16:00
Программа кодирования : mkvmerge v6.6.0 ('The Edge Of The In Between') built on Dec 1 2013 17:55:00
Библиотека кодирования : libebml v1.3.0 + libmatroska v1.4.1
Attachments : poster.jpg
Видео
Идентификатор : 1
Формат : AVC
Формат/Информация : Advanced Video Codec
Профиль формата : High@L4.1
Настройки формата : CABAC / 5 Ref Frames
Параметр CABAC формата : Да
Параметр RefFrames формата : 5 кадров
Идентификатор кодека : V_MPEG4/ISO/AVC
Продолжительность : 1 ч. 14 м.
Битрейт : 3030 Кбит/сек
Ширина : 1464 пикселя
Высота : 1080 пикселей
Соотношение сторон : 4:3
Режим частоты кадров : Постоянный
Частота кадров : 23,976 кадра/сек
Цветовое пространство : YUV
Субдискретизация насыщенности : 4:2:0
Битовая глубина : 8 бит
Тип развёртки : Прогрессивная
Бит/(Пиксели*Кадры) : 0.080
Размер потока : 1,53 Гбайт (78%)
Заголовок : http://kosmoaelita.com/viewtopic.php?t=45
Библиотека кодирования : x264 core 146 r2538 121396c
Настройки программы : cabac=1 / ref=5 / deblock=1:-2:-2 / analyse=0x3:0x131 / me=umh / subme=10 / psy=1 / psy_rd=0.99:0.14 / mixed_ref=1 / me_range=32 / chroma_me=1 / trellis=2 / 8x8dct=1 / cqm=0 / deadzone=21,11 / fast_pskip=1 / chroma_qp_offset=-3 / threads=6 / lookahead_threads=1 / sliced_threads=0 / nr=0 / decimate=1 / interlaced=0 / bluray_compat=0 / constrained_intra=0 / bframes=8 / b_pyramid=2 / b_adapt=2 / b_bias=0 / direct=3 / weightb=1 / open_gop=0 / weightp=2 / keyint=210 / keyint_min=21 / scenecut=40 / intra_refresh=0 / rc_lookahead=80 / rc=2pass / mbtree=1 / bitrate=3030 / ratetol=1.0 / qcomp=0.65 / qpmin=0 / qpmax=69 / qpstep=4 / cplxblur=20.0 / qblur=0.5 / ip_ratio=1.25 / aq=1:0.90
Default : Да
Forced : Нет
Цветовой диапазон : Limited
Основные цвета : BT.709
Характеристики трансфера : BT.709
Коэффициенты матрицы : BT.709
Аудио #1
Идентификатор : 2
Формат : AC-3
Формат/Информация : Audio Coding 3
Коммерческое название : Dolby Digital
Идентификатор кодека : A_AC3
Продолжительность : 1 ч. 14 м.
Вид битрейта : Постоянный
Битрейт : 384 Кбит/сек
Каналы : 2 канала
ChannelLayout : L R
Частота : 48,0 КГц
Частота кадров : 31,250 кадров/сек (1536 SPF)
Метод сжатия : С потерями
Размер потока : 204 Мбайт (10%)
Заголовок : Русский ЛО (den904 для kosmoaelita.com) - поддержка А.Берг
Язык : Russian
ServiceKind/String : Complete Main
Default : Да
Forced : Нет
Аудио #2
Идентификатор : 3
Формат : AC-3
Формат/Информация : Audio Coding 3
Коммерческое название : Dolby Digital
Идентификатор кодека : A_AC3
Продолжительность : 1 ч. 14 м.
Вид битрейта : Постоянный
Битрейт : 384 Кбит/сек
Каналы : 2 канала
ChannelLayout : L R
Частота : 48,0 КГц
Частота кадров : 31,250 кадров/сек (1536 SPF)
Метод сжатия : С потерями
Размер потока : 204 Мбайт (10%)
Язык : English
ServiceKind/String : Complete Main
Default : Нет
Forced : Нет
Текст #1
Идентификатор : 4
Формат : UTF-8
Идентификатор кодека : S_TEXT/UTF8
Идентификатор кодека/Информация : UTF-8 Plain Text
Заголовок : Русский (kosmoaelita, slavnus,Vargnatt) srt
Язык : Russian
Default : Да
Forced : Нет
Текст #2
Идентификатор : 5
Формат : PGS
Режим смешивания : zlib
Идентификатор кодека : S_HDMV/PGS
Идентификатор кодека/Информация : Picture based subtitle format used on BDs/HD-DVDs
Заголовок : Русский (kosmoaelita, slavnus,Vargnatt) .PGS
Язык : Russian
Default : Нет
Forced : Нет
Текст #3
Идентификатор : 6
Формат : UTF-8
Идентификатор кодека : S_TEXT/UTF8
Идентификатор кодека/Информация : UTF-8 Plain Text
Язык : English
Default : Нет
Forced : Нет
Меню
00:00:00.000 : en:00:00:00.000
00:07:10.347 : en:00:07:10.347
00:12:31.042 : en:00:12:31.042
00:19:21.994 : en:00:19:21.994
00:24:17.456 : en:00:24:17.456
00:31:23.673 : en:00:31:23.673
00:37:19.237 : en:00:37:19.237
00:43:49.418 : en:00:43:49.418
00:48:43.087 : en:00:48:43.087
00:59:58.845 : en:00:59:58.845
01:05:16.913 : en:01:05:16.913
01:11:12.393 : en:01:11:12.393

Скриншоты














Скринлист

Пример субтитров

1
00:00:23,828 --> 00:00:26,551
"КИБОРГ -
2
00:00:26,552 --> 00:00:35,848
ЧЕЛОВЕК, ЧАСТИ ТЕЛА КОТОРОГО
В ПОЛНОМ ОБЪЁМЕ ЗАМЕНЕНЫ
3
00:00:35,849 --> 00:00:42,135
НА МЕХАНИЧЕСКИЕ, ВЫПОЛНЯЩИЕ
ТЕ ЖЕ САМЫЕ ФУНКЦИИ".
4
00:01:24,798 --> 00:01:26,197
Трейлер пуст, сэр.
5
00:01:26,266 --> 00:01:27,528
Где его черти носят?
6
00:01:27,601 --> 00:01:28,932
Почти семь часов.
7
00:01:29,002 --> 00:01:30,560
Джентльмены, наверное,
есть веская причина.
8
00:01:30,637 --> 00:01:31,695
Слушай сюда!
9
00:01:31,772 --> 00:01:35,071
Если Остин не появится через две
минуты, помощи от меня не ждите.
10
00:01:35,142 --> 00:01:37,133
Мы тут ждём,
а он где-то прохлаждается!
11
00:01:37,210 --> 00:01:39,405
Генерал.
12
00:01:42,616 --> 00:01:44,584
Что за шутки?
13
00:01:44,651 --> 00:01:47,381
Что он о себе возомнил?
14
00:01:50,651 --> 00:01:53,381
ЧЕЛОВЕК НА ШЕСТЬ
МИЛЛИОНОВ ДОЛЛАРОВ
(1973 г.)
15
00:01:55,651 --> 00:01:59,381
Первая часть трилогии
"The Six Million Dollar Man"
16
00:02:01,234 --> 00:02:02,360
Здорово, Чарли! Как дела?
---------------------------------------------------------------------------------------------------------------------------------------------------------
Вино, женщины и война / Wine, Women and War
Страна: США
Жанр: фантастика, приключения
Год выпуска: 1973
Продолжительность: 01:13:50
Перевод: ЛО den904 по субтитрам от (sasha20072007, slavnus, Н.Лопатинская)
Оригинальная аудиодорожка: Английский
Режиссер: Русс Мейберри / Russ Mayberry
В ролях: Ли Мэйджорс Барбара Андерсон Мартин Болсам, Дэррен МакГэвин, Чарльз Робинсон, Айвор Бэрри, Дороти Грин, Энн Уитфилд, Джордж Уоллес, Роберт Корнтуэйт
Описание: Стив Остин получает тяжелейшие травмы во время катастрофы экспериментального ракетоплана. Он лишается глаза, одной руки и обеих ног. Служба Стратегических Операций готова заплатить шесть миллионов долларов за специальные бионические протезы, которые должны сделать его быстрее, сильнее и лучше обычного человека. За это он должен стать тайным агентом ССО. Новое задание Стива Остина на Багамах вместе с русским разведчиком...
Качество видео: BDRip-1080p
Формат видео: MKV
Видео: x264, 3300 кб/с, 1464x1080, 23.976 к/с
Аудио 1: Русский ЛО (den904) (AC3, 2 кн, 256 Кбит/с)
Аудио 2: Английский (AC3, 2 кн, 256 Кбит/с)
Субтитры 1: Русские, SRT
Субтитры 2: Русские, VobSub
Субтитры 3: Английские, SRT
Субтитры 4: Английские, VobSub


Пример русской озвучки

Работа над релизом:
Релиз kosmoaelita.
Рип с немецкого BD50 и монтаж kosmoaelita
Перевод: Н.Лопатинская
Субтитры: sasha20072007, slavnus
Лог кодирования и постеры - в контейнере
Русская озвучка по заказу kosmoaelita - den904
Спонсор русской озвучки - Андрей Берг

Дополнительно

Другие названия:
Der sechs Millionen Dollar Mann - Der Waffenschieber West Germany
Vin, vacances et vahinés France
Wine, Women and War USA (short title)

MediaInfo

Общее
Уникальный идентификатор : 253253709494605751946606898804029054067 (0xBE86E3E85C2281B7A22FE72A40AADC73)
Полное имя : F:\The Six Million Dollar Man Trilogy 1973 BDRip-1080p\2 Wine, Women and War 1973.x264.BDRip.1080p.Rus.kosmoaelita.mkv
Формат : Matroska
Версия формата : Version 4
Размер файла : 1,97 Гбайт
Продолжительность : 1 ч. 13 м.
Общий поток : 3818 Кбит/сек
Название фильма : Wine, Women and War Part 2 / 1973 / Вино, женщина и война / rip from BD50 by kosmoaelita (2021-07-18), crf=21.02
Дата кодирования : UTC 2021-07-18 05:46:29
Программа кодирования : mkvmerge v6.6.0 ('The Edge Of The In Between') built on Dec 1 2013 17:55:00
Библиотека кодирования : libebml v1.3.0 + libmatroska v1.4.1
Attachments : 2.mkv.encoding.log / poster.jpg
Видео
Идентификатор : 1
Формат : AVC
Формат/Информация : Advanced Video Codec
Профиль формата : High@L4.1
Настройки формата : CABAC / 5 Ref Frames
Параметр CABAC формата : Да
Параметр RefFrames формата : 5 кадров
Идентификатор кодека : V_MPEG4/ISO/AVC
Продолжительность : 1 ч. 13 м.
Битрейт : 3300 Кбит/сек
Ширина : 1464 пикселя
Высота : 1080 пикселей
Соотношение сторон : 4:3
Режим частоты кадров : Постоянный
Частота кадров : 23,976 кадра/сек
Цветовое пространство : YUV
Субдискретизация насыщенности : 4:2:0
Битовая глубина : 8 бит
Тип развёртки : Прогрессивная
Бит/(Пиксели*Кадры) : 0.087
Размер потока : 1,67 Гбайт (85%)
Заголовок : http://kosmoaelita.com/viewtopic.php?t=45
Библиотека кодирования : x264 core 146 r2538 121396c
Настройки программы : cabac=1 / ref=5 / deblock=1:-2:-2 / analyse=0x3:0x131 / me=umh / subme=10 / psy=1 / psy_rd=0.99:0.14 / mixed_ref=1 / me_range=32 / chroma_me=1 / trellis=2 / 8x8dct=1 / cqm=0 / deadzone=21,11 / fast_pskip=1 / chroma_qp_offset=-3 / threads=6 / lookahead_threads=1 / sliced_threads=0 / nr=0 / decimate=1 / interlaced=0 / bluray_compat=0 / constrained_intra=0 / bframes=8 / b_pyramid=2 / b_adapt=2 / b_bias=0 / direct=3 / weightb=1 / open_gop=0 / weightp=2 / keyint=210 / keyint_min=21 / scenecut=40 / intra_refresh=0 / rc_lookahead=80 / rc=2pass / mbtree=1 / bitrate=3300 / ratetol=1.0 / qcomp=0.65 / qpmin=0 / qpmax=69 / qpstep=4 / cplxblur=20.0 / qblur=0.5 / ip_ratio=1.25 / aq=1:0.90
Язык : English
Default : Да
Forced : Нет
Цветовой диапазон : Limited
Основные цвета : BT.709
Характеристики трансфера : BT.709
Коэффициенты матрицы : BT.709
Аудио #1
Идентификатор : 2
Формат : AC-3
Формат/Информация : Audio Coding 3
Коммерческое название : Dolby Digital
Идентификатор кодека : A_AC3
Продолжительность : 1 ч. 13 м.
Вид битрейта : Постоянный
Битрейт : 256 Кбит/сек
Каналы : 2 канала
ChannelLayout : L R
Частота : 48,0 КГц
Частота кадров : 31,250 кадров/сек (1536 SPF)
Метод сжатия : С потерями
Размер потока : 135 Мбайт (7%)
Заголовок : Русский ЛО (den904 для kosmoaelita.com) - поддержка А.Берг
Язык : Russian
ServiceKind/String : Complete Main
Default : Да
Forced : Нет
Аудио #2
Идентификатор : 3
Формат : AC-3
Формат/Информация : Audio Coding 3
Коммерческое название : Dolby Digital
Идентификатор кодека : A_AC3
Продолжительность : 1 ч. 13 м.
Вид битрейта : Постоянный
Битрейт : 256 Кбит/сек
Каналы : 2 канала
ChannelLayout : L R
Частота : 48,0 КГц
Частота кадров : 31,250 кадров/сек (1536 SPF)
Метод сжатия : С потерями
Размер потока : 135 Мбайт (7%)
Язык : English
ServiceKind/String : Complete Main
Default : Нет
Forced : Нет
Текст #1
Идентификатор : 4
Формат : UTF-8
Идентификатор кодека : S_TEXT/UTF8
Идентификатор кодека/Информация : UTF-8 Plain Text
Заголовок : Русский (kosmoaelita,slavnus,Лопатинская) srt - перевод с англ. субт.
Язык : Russian
Default : Да
Forced : Нет
Текст #2
Идентификатор : 5
Формат : VobSub
Режим смешивания : zlib
Идентификатор кодека : S_VOBSUB
Идентификатор кодека/Информация : Picture based subtitle format used on DVDs
Заголовок : Русский (kosmoaelita,slavnus,Лопатинская) VobSub
Язык : Russian
Default : Нет
Forced : Нет
Текст #3
Идентификатор : 6
Формат : UTF-8
Идентификатор кодека : S_TEXT/UTF8
Идентификатор кодека/Информация : UTF-8 Plain Text
Язык : English
Default : Нет
Forced : Нет
Меню
00:00:00.000 : en:00:00:00.000
00:01:01.061 : en:00:01:01.061
00:06:00.360 : en:00:06:00.360
00:12:00.720 : en:00:12:00.720
00:18:01.080 : en:00:18:01.080
00:24:01.440 : en:00:24:01.440
00:30:01.800 : en:00:30:01.800
00:36:02.160 : en:00:36:02.160
00:42:02.520 : en:00:42:02.520
00:48:02.880 : en:00:48:02.880
00:54:03.240 : en:00:54:03.240
01:00:03.600 : en:01:00:03.600
01:06:03.960 : en:01:06:03.960
01:12:04.320 : en:01:12:04.320
01:13:50.217 : en:01:13:50.217

Скриншоты







Скринлист

Пример субтитров

1
00:00:24,805 --> 00:00:27,797
Центр управления полетами.
Стив, что там? Что случилось?
2
00:00:28,608 --> 00:00:30,599
Я думал, ты мне скажешь.
3
00:00:33,513 --> 00:00:34,571
Он жив.
4
00:00:34,648 --> 00:00:38,982
Потерял руку, обе ноги и один глаз.
Но он жив.
5
00:00:39,052 --> 00:00:42,510
Не думаю, что в таком состоянии
он захочет жить.
6
00:00:42,589 --> 00:00:45,251
Он сможет стать чем-то большим,
чем был раньше.
7
00:00:45,325 --> 00:00:47,589
Мы можем вживить ему протезы.
8
00:00:47,661 --> 00:00:49,253
Не важно сколько это будет стоить,
но мы его вытащим.
9
00:00:53,233 --> 00:00:56,999
« Он мужчина «
« на шесть миллионов долларов «
10
00:00:57,070 --> 00:01:00,870
« Он мужчина «
« на шесть миллионов долларов
11
00:01:00,941 --> 00:01:03,671
« Поймай его, если сможешь «
« побей его, если сможешь «
12
00:01:03,744 --> 00:01:06,872
« Полюби его, если сможешь «
13
00:01:06,947 --> 00:01:11,884
« Ведь он мужчина «
« на шесть миллионов долларов
14
00:01:14,792 --> 00:01:20,000
Вторая часть трилогии
The Six Million Dollar Man -
15
00:01:20,792 --> 00:01:24,752
ВИНО,ЖЕНЩИНЫ И ВОЙНА
(Wine, Women and War, 1973)
----------------------------------------------------------------------------------------------------------------------------------------------------------
Похищение золота / Solid gold kidnapping
Страна: США
Жанр: фантастика, приключения
Год выпуска: 1973
Продолжительность: 01:13:43
Перевод: Субтитры (sasha20072007, slavnus, Н.Лопатинская)
Cубтитры: Русские, английские
Оригинальная аудиодорожка: Английский
Режиссер: Русс Мейберри / Russ Mayberry
В ролях: Ли Мэйджорс Барбара Андерсон Мартин Болсам, Дэррен МакГэвин, Чарльз Робинсон, Айвор Бэрри, Дороти Грин, Энн Уитфилд, Джордж Уоллес, Роберт Корнтуэйт
Описание: Космонавт и летчик-испытатель полковник Стив Остин получает тяжелейшие травмы во время катастрофы экспериментального ракетоплана. Он лишается глаза, одной руки и обеих ног. Служба Стратегических Операций готова заплатить шесть миллионов долларов за специальные бионические протезы, которые должны сделать его быстрее, сильнее и лучше обычного человека. За это он должен стать тайным агентом ССО. Новое задание Стива Остина - не допустить кражи золотого запаса США...
Качество видео: BDRip-1080p
Формат видео: MKV
Видео: x264, 3300 кб/с, 1464x1080, 23.976 к/с
Аудио 1: Русский ЛО (den904) (AC3, 2 кн, 256 Кбит/с)
Аудио 2: Английский (AC3, 2 кн, 256Кбит/с)
Субтитры 1: Русские, SRT
Субтитры 2: Русские, VobSub
Субтитры 3: Английские, SRT
Субтитры 4: Английские, VobSub

Пример русской озвучки

Работа над релизом:
Релиз kosmoaelita.
Рип с немецкого BD50 и монтаж kosmoaelita
Перевод: Н.Лопатинская
Субтитры: sasha20072007, slavnus
Лог кодирования и постеры - в контейнере
Русская озвучка по заказу kosmoaelita - den904
Спонсор русской озвучки - Андрей Берг

Дополнительно

Другие названия:
Der sechs Millionen Dollar Mann - Das Erpressersyndikat West Germany
Solid Gold Kidnapping USA (short title)

MediaInfo

Общее
Уникальный идентификатор : 219528489051523949602267404232331924932 (0xA527A629851035C4B6A25513D2DC95C4)
Полное имя : F:\The Six Million Dollar Man Trilogy 1973 BDRip-1080p\3 Solid gold kidnapping 1973.x264.BDRip.1080p.Rus.kosmoaelita.mkv
Формат : Matroska
Версия формата : Version 4
Размер файла : 1,96 Гбайт
Продолжительность : 1 ч. 13 м.
Общий поток : 3817 Кбит/сек
Название фильма : The Six Million Dollar Man / Solid gold kidnapping Part 3 / Похищение золота / 1973 / rip from BD50 by kosmoaelita (2021-07-18), crf=21.94
Дата кодирования : UTC 2021-07-18 07:29:58
Программа кодирования : mkvmerge v6.6.0 ('The Edge Of The In Between') built on Dec 1 2013 17:55:00
Библиотека кодирования : libebml v1.3.0 + libmatroska v1.4.1
Attachments : 3.mkv.encoding.log / poster.jpg
Видео
Идентификатор : 1
Формат : AVC
Формат/Информация : Advanced Video Codec
Профиль формата : High@L4.1
Настройки формата : CABAC / 5 Ref Frames
Параметр CABAC формата : Да
Параметр RefFrames формата : 5 кадров
Идентификатор кодека : V_MPEG4/ISO/AVC
Продолжительность : 1 ч. 13 м.
Битрейт : 3300 Кбит/сек
Ширина : 1464 пикселя
Высота : 1080 пикселей
Соотношение сторон : 4:3
Режим частоты кадров : Постоянный
Частота кадров : 23,976 кадра/сек
Цветовое пространство : YUV
Субдискретизация насыщенности : 4:2:0
Битовая глубина : 8 бит
Тип развёртки : Прогрессивная
Бит/(Пиксели*Кадры) : 0.087
Размер потока : 1,66 Гбайт (85%)
Заголовок : http://kosmoaelita.com/viewtopic.php?t=45
Библиотека кодирования : x264 core 146 r2538 121396c
Настройки программы : cabac=1 / ref=5 / deblock=1:-2:-2 / analyse=0x3:0x131 / me=umh / subme=10 / psy=1 / psy_rd=0.99:0.14 / mixed_ref=1 / me_range=32 / chroma_me=1 / trellis=2 / 8x8dct=1 / cqm=0 / deadzone=21,11 / fast_pskip=1 / chroma_qp_offset=-3 / threads=6 / lookahead_threads=1 / sliced_threads=0 / nr=0 / decimate=1 / interlaced=0 / bluray_compat=0 / constrained_intra=0 / bframes=8 / b_pyramid=2 / b_adapt=2 / b_bias=0 / direct=3 / weightb=1 / open_gop=0 / weightp=2 / keyint=210 / keyint_min=21 / scenecut=40 / intra_refresh=0 / rc_lookahead=80 / rc=2pass / mbtree=1 / bitrate=3300 / ratetol=1.0 / qcomp=0.65 / qpmin=0 / qpmax=69 / qpstep=4 / cplxblur=20.0 / qblur=0.5 / ip_ratio=1.25 / aq=1:0.90
Язык : English
Default : Да
Forced : Нет
Цветовой диапазон : Limited
Основные цвета : BT.709
Характеристики трансфера : BT.709
Коэффициенты матрицы : BT.709
Аудио #1
Идентификатор : 2
Формат : AC-3
Формат/Информация : Audio Coding 3
Коммерческое название : Dolby Digital
Идентификатор кодека : A_AC3
Продолжительность : 1 ч. 13 м.
Вид битрейта : Постоянный
Битрейт : 256 Кбит/сек
Каналы : 2 канала
ChannelLayout : L R
Частота : 48,0 КГц
Частота кадров : 31,250 кадров/сек (1536 SPF)
Метод сжатия : С потерями
Размер потока : 135 Мбайт (7%)
Заголовок : Русский ЛО (den904 для kosmoaelita.com) - поддержка А.Берг
Язык : Russian
ServiceKind/String : Complete Main
Default : Да
Forced : Нет
Аудио #2
Идентификатор : 3
Формат : AC-3
Формат/Информация : Audio Coding 3
Коммерческое название : Dolby Digital
Идентификатор кодека : A_AC3
Продолжительность : 1 ч. 13 м.
Вид битрейта : Постоянный
Битрейт : 256 Кбит/сек
Каналы : 2 канала
ChannelLayout : L R
Частота : 48,0 КГц
Частота кадров : 31,250 кадров/сек (1536 SPF)
Метод сжатия : С потерями
Размер потока : 135 Мбайт (7%)
Язык : English
ServiceKind/String : Complete Main
Default : Нет
Forced : Нет
Текст #1
Идентификатор : 4
Формат : UTF-8
Идентификатор кодека : S_TEXT/UTF8
Идентификатор кодека/Информация : UTF-8 Plain Text
Заголовок : Русский (kosmoaelita,slavnus,Лопатинская) srt - перевод с англ. субтитров
Язык : Russian
Default : Да
Forced : Нет
Текст #2
Идентификатор : 5
Формат : VobSub
Режим смешивания : zlib
Идентификатор кодека : S_VOBSUB
Идентификатор кодека/Информация : Picture based subtitle format used on DVDs
Заголовок : Русский (kosmoaelita,slavnus,Лопатинская) VobSub
Язык : Russian
Default : Нет
Forced : Нет
Текст #3
Идентификатор : 6
Формат : UTF-8
Идентификатор кодека : S_TEXT/UTF8
Идентификатор кодека/Информация : UTF-8 Plain Text
Язык : English
Default : Нет
Forced : Нет
Меню
00:00:00.000 : en:00:00:00.000
00:01:01.061 : en:00:01:01.061
00:06:00.360 : en:00:06:00.360
00:12:00.720 : en:00:12:00.720
00:18:01.080 : en:00:18:01.080
00:24:01.440 : en:00:24:01.440
00:30:01.800 : en:00:30:01.800
00:36:02.160 : en:00:36:02.160
00:42:02.520 : en:00:42:02.520
00:48:02.880 : en:00:48:02.880
00:54:03.240 : en:00:54:03.240
01:00:03.600 : en:01:00:03.600
01:06:03.960 : en:01:06:03.960
01:12:04.320 : en:01:12:04.320
01:13:42.501 : en:01:13:42.501

Скриншоты











Скринлист

Пример субтитров

75
00:16:29,735 --> 00:16:31,726
Мои поздравления.
176
00:16:33,506 --> 00:16:34,871
Джулиан, что ты здесь делаешь?
177
00:16:35,474 --> 00:16:39,808
Прекрасная операция, Роджер.
Все прошло как по маслу.
178
00:16:39,879 --> 00:16:41,506
И всего лишь один труп.
179
00:16:41,580 --> 00:16:43,377
Труп? Кто?
180
00:16:43,449 --> 00:16:45,440
Ты.
181
00:16:51,791 --> 00:16:52,917
Один мертв...
182
00:16:52,992 --> 00:16:55,859
Остался еще один
183
00:17:00,533 --> 00:17:02,262
Ты за мной следишь?
184
00:17:02,335 --> 00:17:04,326
Просто любуюсь твоей фигурой.
185
00:17:15,848 --> 00:17:17,475
Идеальная.
186
00:17:17,550 --> 00:17:19,381
Что?
187
00:17:19,452 --> 00:17:20,919
Твоя фигура.
188
00:17:20,986 --> 00:17:24,649
Ты часто бываешь в Аспене?
189
00:17:24,724 --> 00:17:27,056
Пытаюсь приезжать так часто, как могу.
190
00:17:30,563 --> 00:17:32,588
Неправильно набрали номер, я знаю.
191
00:17:32,665 --> 00:17:34,997
Это займет всего минуту.
cd Рип дополнительно залит на mail.ru cd2


Last edited by admin on 2015-04-21 18:56; edited 15 times in total
[Profile] [PM]

admin ®

Gender: Male

Longevity: 9 years

Posts: 4772

Post 03-Apr-2015 21:48 (after 2 years 6 months)

[Quote]

Добавлена русская озвучка первой части
[Profile] [PM]

admin ®

Gender: Male

Longevity: 9 years

Posts: 4772

Post 17-Apr-2015 21:23 (after 13 days)

[Quote]

Добавлена русская озвучка второй части
[Profile] [PM]

Трамвай-фильм

Gender: Male

Longevity: 7 years 1 month

Posts: 1896

Location: Россия

Post 18-Apr-2015 22:06 (after 1 day)

[Quote]

будет свободное время надо будет посмотреть.
[Profile] [PM]

admin ®

Gender: Male

Longevity: 9 years

Posts: 4772

Post 18-Apr-2015 22:23 (after 16 minutes)

[Quote]

Обычный шпионский детектив
[Profile] [PM]

Трамвай-фильм

Gender: Male

Longevity: 7 years 1 month

Posts: 1896

Location: Россия

Post 18-Apr-2015 22:26 (after 3 minutes)

[Quote]

10433Обычный шпионский детектив
значит фильм о будущем научной фантастики врал.
[Profile] [PM]

admin ®

Gender: Male

Longevity: 9 years

Posts: 4772

Post 18-Apr-2015 22:30 (after 4 minutes)

[Quote]

Там после еще несколькосезонов сериала про того же Остина наштамповали
[Profile] [PM]

Трамвай-фильм

Gender: Male

Longevity: 7 years 1 month

Posts: 1896

Location: Россия

Post 18-Apr-2015 23:04 (after 33 minutes)

[Quote]

10435Там после еще несколькосезонов сериала про того же Остина наштамповали
корову доят, пока она не сдохнет.
[Profile] [PM]

admin ®

Gender: Male

Longevity: 9 years

Posts: 4772

Post 21-Apr-2015 18:35 (after 2 days 19 hours)

[Quote]

Добавлена озвучка заключительной части
[Profile] [PM]

Guest

Gender: Unknown

Post 22-Apr-2015 00:59 (after 6 hours)

[Quote]

По-моему стоит посмотреть хотя бы ради бегущего на фоне подлодки с ядерным грибом мужика. Хотя конечно всё это клоны Бонда. Мне лично фильм понравился - динамичный такой боевичок про мужика с механической рукой, ногами и электронным глазом.
 

kosmoaelita

Gender: Male

Longevity: 9 years

Posts: 1766

Post 17-Nov-2020 22:22 (after 5 years 6 months)

[Quote]

Первая часть заменена на BDRip-1080p
[Profile] [PM]

kosmoaelita

Gender: Male

Longevity: 9 years

Posts: 1766

Post 27-Aug-2021 07:02 (after 9 months 9 days)

[Quote]

Вторая и третья часть заменены на BDRip-1080p
[Profile] [PM]
Display posts:    
Reply to topic

Current time is: 25-Sep 18:29

All times are UTC + 3



You cannot post new topics in this forum
You cannot reply to topics in this forum
You cannot edit your posts in this forum
You cannot delete your posts in this forum
You cannot vote in polls in this forum
You cannot attach files in this forum
You cannot download files in this forum