Сидящие в засаде / The Ambushers (Генри Левин / Henry Levin) [1967, США, фантастика, боевик, триллер, комедия, DVDRip-AVC] VO (slavnus) + Sub Rus + Original Eng

Reply to topic
 
Author Message

admin ®

Gender: Male

Longevity: 7 years 2 months

Posts: 4721

Post 05-Sep-2012 04:06

[Quote]

Сидящие в засаде / The Ambushers
Страна: США
Жанр: фантастика, боевик, триллер, комедия
Год выпуска: 1967
Продолжительность: 01:41:59
Перевод: Одноголосый закадровый (slavnus)
Cубтитры: Русские, испанские, английские, японские
Оригинальная аудиодорожка: английский
Режиссер: Генри Левин / Henry Levin
В ролях: Дин Мартин Зента Бергер Дженис Рул Джеймс Грегори Альберт Сэлми Курт Казнар Беверли Адамс Дэвид Мауро Рой Дженсон Джон Брашиа
Описание: По правительственному заданию в США создают и запускают в космос летающую тарелку. Однако во время испытательного полёта, благодаря чудесам научной мысли, тарелка и пилотировавшая её женщина попадают в руки злодея Ортеги, обосновавшегося на своей секретной базе где-то в Мексике. На поиски пропажи отправляется секретный агент Мэтт Хельм.
Качество видео: DVDRip-AVC
Формат видео: MKV
Видео: x264, 1532 кб/с, 720x468@853x468, 23.976 к/с, crf~19.5
Аудио 1: Русский (AC3, 2кн, 224 Кбит/с)
Аудио 2: Английский (AC3, 2 кн, 192 Кбит/с)
Субтитры 1: Русские, SRT
Субтитры 2: Русские, VobSub
Субтитры 3: Английские, SRT
Субтитры 4: Английские, VobSub
Субтитры 5: Испанские, VobSub
Субтитры 6: Японские, VobSub

Релиз

Рип с японского ДВД5: sasha20072007
Озвучка: одноголосый slavnus
Перевод: Vargnatt
Субтитры: sasha20072007, slavnus
Лог кодирования и постеры - в контейнере

Дополнительно

Другие названия:
Amansiz takip Turkey (Turkish title)
Emboscada a Matt Helm Spain
Emboscada para Matt Helm Brazil (imdb display title)
I enedra Greece (transliterated ISO-LATIN-1 title)
L'imboscata Italy
Matt Helm i farornas nät Finland (Swedish title)
Matt Helm klipper till igen Sweden
Matt Helm og de lårkorte Denmark
Matt Helm traqué France
Matt Helm vaarojen verkossa Finland
Quem Brinca Com o Fogo Queima-se Portugal (imdb display title)
Wenn Killer auf der Lauer liegen West Germany
Страничка на Кинопоиске
Для удаления и добавления дорожек в mkv используйте бесплатную mkvmerge GUI 5.70

MediaInfo

Общее
Уникальный идентификатор : 220430708616179361709776369464368945223 (0xA5D569056645332497F9B89A74BFD847)
Полное имя : F:\Сидящие в засаде THE AMBUSHERS 1967.x264.DVDRip(AVC).sasha200720.mkv
Формат : Matroska
Версия формата : Version 2
Размер файла : 1,40 Гбайт
Продолжительность : 1 ч. 41 м.
Общий поток : 1960 Кбит/сек
Название фильма : The Ambushers / 1967 / rip by sasha20072007 (2012-08-27)
Дата кодирования : UTC 2012-09-01 06:22:09
Программа кодирования : mkvmerge v5.7.0 ('The Whirlwind') built on Jul 30 2012 20:20:16
Библиотека кодирования : libebml v1.2.3 + libmatroska v1.3.0
Attachment : Yes
Видео
Идентификатор : 1
Формат : AVC
Формат/Информация : Advanced Video Codec
Профиль формата : High@L4.1
Параметр CABAC формата : Да
Параметр ReFrames формата : 8 кадров
Идентификатор кодека : V_MPEG4/ISO/AVC
Продолжительность : 1 ч. 41 м.
Битрейт : 1532 Кбит/сек
Ширина : 720 пикселей
Высота : 468 пикселей
Соотношение сторон : 1,85:1
Частота кадров : 23,976 кадра/сек
Цветовое пространство : YUV
Субдискретизация насыщенности : 4:2:0
Битовая глубина : 8 бит
Тип развёртки : Прогрессивная
Бит/(Пиксели*Кадры) : 0.190
Размер потока : 1,07 Гбайт (77%)
Библиотека кодирования : x264 core 125 r2200 999b753
Настройки программы : cabac=1 / ref=8 / deblock=1:-1:0 / analyse=0x3:0x133 / me=umh / subme=11 / psy=1 / psy_rd=1.00:0.17 / mixed_ref=1 / me_range=24 / chroma_me=1 / trellis=2 / 8x8dct=1 / cqm=0 / deadzone=21,11 / fast_pskip=1 / chroma_qp_offset=-3 / threads=6 / lookahead_threads=1 / sliced_threads=0 / nr=0 / decimate=1 / interlaced=0 / bluray_compat=0 / constrained_intra=0 / bframes=10 / b_pyramid=2 / b_adapt=2 / b_bias=0 / direct=3 / weightb=1 / open_gop=0 / weightp=2 / keyint=220 / keyint_min=22 / scenecut=40 / intra_refresh=0 / rc_lookahead=60 / rc=2pass / mbtree=1 / bitrate=1532 / ratetol=1.0 / qcomp=0.60 / qpmin=0 / qpmax=69 / qpstep=4 / cplxblur=20.0 / qblur=0.5 / vbv_maxrate=17500 / vbv_bufsize=14000 / nal_hrd=none / ip_ratio=1.29 / aq=1:0.80
Default : Да
Forced : Нет
Основные цвета : BT.470-6 System B, BT.470-6 System G, BT.601-6 625, BT.1358 625, BT.1700 625 PAL, BT.1700 625 SECAM
Характеристики трансфера : BT.470-6 System B, BT.470-6 System G
Коэффициенты матрицы : BT.470-6 System B, BT.470-6 System G, BT.601-6 625, BT.1358 625, BT.1700 625 PAL, BT.1700 625 SECAM, IEC 61966-2-4 601
Аудио #1
Идентификатор : 2
Формат : AC-3
Формат/Информация : Audio Coding 3
Расширение режима : CM (complete main)
Параметр Endianness формата : Big
Идентификатор кодека : A_AC3
Продолжительность : 1 ч. 41 м.
Вид битрейта : Постоянный
Битрейт : 224 Кбит/сек
Каналы : 2 канала
Расположение каналов : Front: L R
Частота : 48,0 КГц
Битовая глубина : 16 бит
Метод сжатия : С потерями
Размер потока : 163 Мбайт (11%)
Заголовок : Русский (slavnus)
Язык : Russian
Default : Да
Forced : Нет
Аудио #2
Идентификатор : 3
Формат : AC-3
Формат/Информация : Audio Coding 3
Расширение режима : CM (complete main)
Параметр Endianness формата : Big
Идентификатор кодека : A_AC3
Продолжительность : 1 ч. 41 м.
Вид битрейта : Постоянный
Битрейт : 192 Кбит/сек
Каналы : 2 канала
Расположение каналов : Front: L R
Частота : 48,0 КГц
Битовая глубина : 16 бит
Метод сжатия : С потерями
Размер потока : 140 Мбайт (10%)
Язык : English
Default : Нет
Forced : Нет
Текст #1
Идентификатор : 4
Формат : VobSub
Идентификатор кодека : S_VOBSUB
Идентификатор кодека/Информация : The same subtitle format used on DVDs
Заголовок : Русский (Vargnatt)
Язык : Russian
Default : Да
Forced : Нет
Текст #2
Идентификатор : 5
Формат : UTF-8
Идентификатор кодека : S_TEXT/UTF8
Идентификатор кодека/Информация : UTF-8 Plain Text
Заголовок : Русский
Язык : Russian
Default : Нет
Forced : Нет
Текст #3
Идентификатор : 6
Формат : VobSub
Идентификатор кодека : S_VOBSUB
Идентификатор кодека/Информация : The same subtitle format used on DVDs
Язык : English
Default : Нет
Forced : Нет
Текст #4
Идентификатор : 7
Формат : VobSub
Идентификатор кодека : S_VOBSUB
Идентификатор кодека/Информация : The same subtitle format used on DVDs
Язык : Spanish
Default : Нет
Forced : Нет
Текст #5
Идентификатор : 8
Формат : VobSub
Идентификатор кодека : S_VOBSUB
Идентификатор кодека/Информация : The same subtitle format used on DVDs
Язык : Japanese
Default : Нет
Forced : Нет
Текст #6
Идентификатор : 9
Формат : UTF-8
Идентификатор кодека : S_TEXT/UTF8
Идентификатор кодека/Информация : UTF-8 Plain Text
Язык : English
Default : Нет
Forced : Нет
Меню
00:00:00.000 : :Chapter 01
00:06:33.667 : :Chapter 02
00:14:15.535 : :Chapter 03
00:22:25.802 : :Chapter 04
00:32:05.202 : :Chapter 05
00:40:27.969 : :Chapter 06
00:49:24.870 : :Chapter 07
00:54:33.671 : :Chapter 08
01:06:15.472 : :Chapter 09
01:14:58.972 : :Chapter 10
01:21:34.005 : :Chapter 11
01:27:57.672 : :Chapter 12

Скриншоты



[Profile] [PM]
Quick Reply

Name:

            
Heads necessary to send messages to enable JavaScript
Display posts:    
Reply to topic

Current time is: 21-Nov 12:42

All times are UTC + 3



You cannot post new topics in this forum
You can reply to topics in this forum
You cannot edit your posts in this forum
You cannot delete your posts in this forum
You cannot vote in polls in this forum
You cannot attach files in this forum
You cannot download files in this forum