Зверь из космоса / La bestia nello spazio / Beast in Space (Альфонсо Брешия / Alfonso Brescia) [1980 г., фантастика, ужасы, DVDRip] ЛО (А.Алексеев)

Reply to topic
DL-List and Torrent activity
Size:  1.41 GB   |    Registered:  6 years 5 months   |    Completed:  20 times

Seeder not seen: 5 months 24 days

 
   
 
 
 
Author Message

Guest ®

Gender: Unknown

Post 21-Dec-2012 12:38

[Quote]

Зверь из космоса / La bestia nello spazio / Beast in Space
Год выпуска: 1980
Страна: Италия
Жанр: фантастика, эротика
Продолжительность: 01:32:10
Перевод: Дюбительский (одноголосый) А.Алексеев
Режиссер: Альфонсо Брешия
В ролях:
Sirpa Lane ... Lt. Sondra Richardson (as Shirpa Lane)
Vassili Karis ... Captain Larry Madison (as Vassilli Karis)
Lucio Rosato
Umberto Ceriani ... Dr. Green
Maria D'Alessandro ... Erika Grant
Giuseppe Fortis
Dada Gallotti
Giuseppe Lauricella
Marina Hedman ... Frieda Henkel (as Marina Lotar)
Iren Szeremi ... (as Irene Szeremi)
Claudio Zucchet
Claudio Undari ... Onaf (as Robert Hundar)
Venantino Venantini ... Juan Cardoso
Описание: Фантастическо-эротический трэш. В далеком будущем большая интернациональная группа астронавтов отправляется на далекую планету. Астронавта-девушку Сандру постоянно преследуют видения, где она совокупляется со страшным животным на фоне дикой неземной природы. Группа смельчаков наконец достигает эту планету и отправляется на поиски контакта с внеземной цивилизацией. Странное ощущение редкого смешивания добротной европейской фантастики начала 80-х годов и откровенных сексуальных сцен.

Пентология итальянских Звездных Войн А.Брешиа:
1 Год ноль - война планет / Anno zero - guerra nello spazio 1977
2 Космические баталии / Battaglie negli spazi stellari / Battle of The Stars 1978
3 Война роботов / La guerra dei robot / The War Of The Robots 1978
4 Звёздная Одиссея / Sette uomini d'oro nello spazio / Captive Planet / Star Odyssey 1979
5 Зверь из космоса / La bestia nello spazio / 1980
Качество: DVDRip-AVC
Формат: MKV
Видео: x264, 1800 кбит/с, 718x464@850x464, 23.976 к/с
Аудио 1: Русский ЛО (А.Алексеев) (AC3, 2 ch, 192 Кбит/с)
Аудио 2: Итальянский (AC3, 2 ch, 192 Кбит/с)
Субтитры : Английские, испанские
Работа над релизом:




Пример русского перевода

Дополнительно

Also Known As (AKA)
Beast in Space USA
Bestia! Venus ja peto Finland
Die Bestie aus dem Weltraum West Germany

Рецензия

MediaInfo

Общее
Уникальный идентификатор : 192716273381647510776300976802974163851 (0x90FBCDDDEE3FEE1BB649B3911BC8638B)
Полное имя : F:\La bestia nello spazio 1980.x264.DVDRip.AVC.kosmoaelita.mkv
Формат : Matroska
Версия формата : Version 4 / Version 2
Размер файла : 1,41 Гбайт
Продолжительность : 1 ч. 32 м.
Общий поток : 2189 Кбит/сек
Название фильма : Тварь из космоса / La bestia nello spazio / Beast in Space / 1980
Дата кодирования : UTC 2013-06-03 15:12:39
Программа кодирования : mkvmerge v6.2.0 ('Promised Land') built on Apr 28 2013 12:22:01
Библиотека кодирования : libebml v1.3.0 + libmatroska v1.4.0
Attachment : Yes
Видео
Идентификатор : 1
Формат : AVC
Формат/Информация : Advanced Video Codec
Профиль формата : Main@L3.0
Параметр CABAC формата : Да
Параметр ReFrames формата : 2 кадра
Идентификатор кодека : V_MPEG4/ISO/AVC
Битрейт : 1800 Кбит/сек
Ширина : 718 пикселей
Высота : 464 пикселя
Соотношение сторон : 1,85:1
Соотношение сторон в оригинале : 1,85:1
Режим частоты кадров : Переменный
Частота кадров в оригинале : 23,976 кадра/сек
Цветовое пространство : YUV
Субдискретизация насыщенности : 4:2:0
Битовая глубина : 8 бит
Тип развёртки : Прогрессивная
Бит/(Пиксели*Кадры) : 0.225
Библиотека кодирования : x264 core 65 r1028M 83baa7f
Настройки программы : cabac=1 / ref=2 / deblock=1:0:0 / analyse=0x1:0x111 / me=umh / subme=6 / psy_rd=1.0:0.0 / mixed_ref=0 / me_range=16 / chroma_me=1 / trellis=0 / 8x8dct=0 / cqm=0 / deadzone=21,11 / chroma_qp_offset=-2 / threads=3 / nr=0 / decimate=1 / mbaff=0 / bframes=2 / b_pyramid=0 / b_adapt=1 / b_bias=0 / direct=1 / wpredb=0 / keyint=240 / keyint_min=24 / scenecut=40(pre) / rc=2pass / bitrate=1800 / ratetol=1.0 / qcomp=0.60 / qpmin=10 / qpmax=51 / qpstep=4 / cplxblur=20.0 / qblur=0.5 / ip_ratio=1.40 / pb_ratio=1.30 / aq=1:1.00
Язык : English
Default : Да
Forced : Нет
Основные цвета : BT.601 NTSC
Характеристики трансфера : BT.709
Коэффициенты матрицы : BT.601
Аудио #1
Идентификатор : 2
Формат : AC-3
Формат/Информация : Audio Coding 3
Расширение режима : CM (complete main)
Параметр Endianness формата : Big
Идентификатор кодека : A_AC3
Продолжительность : 1 ч. 32 м.
Вид битрейта : Постоянный
Битрейт : 192 Кбит/сек
Каналы : 2 канала
Расположение каналов : Front: L R
Частота : 48,0 КГц
Битовая глубина : 16 бит
Метод сжатия : С потерями
Размер потока : 127 Мбайт (9%)
Заголовок : Русский ЛО
Язык : Russian
Default : Да
Forced : Нет
Аудио #2
Идентификатор : 3
Формат : AC-3
Формат/Информация : Audio Coding 3
Расширение режима : CM (complete main)
Параметр Endianness формата : Big
Идентификатор кодека : A_AC3
Продолжительность : 1 ч. 32 м.
Вид битрейта : Постоянный
Битрейт : 192 Кбит/сек
Каналы : 2 канала
Расположение каналов : Front: L R
Частота : 48,0 КГц
Битовая глубина : 16 бит
Метод сжатия : С потерями
Размер потока : 127 Мбайт (9%)
Язык : Italian
Default : Нет
Forced : Нет
Текст #1
Идентификатор : 4
Формат : VobSub
Идентификатор кодека : S_VOBSUB
Идентификатор кодека/Информация : The same subtitle format used on DVDs
Язык : English
Default : Да
Forced : Нет
Текст #2
Идентификатор : 5
Формат : UTF-8
Идентификатор кодека : S_TEXT/UTF8
Идентификатор кодека/Информация : UTF-8 Plain Text
Язык : Spanish
Default : Нет
Forced : Нет

Скринлист

Файл дополнительно залит на ОБЛАКО
La bestia nello spazio 1980.x264.DVDRip.AVC.kosmoaelita.mkv.torrent
Torrent: Registered [ 2013-06-03 18:37 ]

Download .torrent

Download

57 KB

Status: checked
Completed: 20 times
Size: 1.41 GB
 
 

Guest ®

Gender: Unknown

Post 03-Jun-2013 17:16 (after 5 months 13 days)

[Quote]

Последний фильм пентологии А.Брешиа (с эротическим уклоном)
 

Guest ®

Gender: Unknown

Post 12-Aug-2014 00:44 (after 1 year 2 months)

[Quote]

да - фактически эротика, уже близкая к порно.
 

Guest ®

Gender: Unknown

Post 12-Aug-2014 06:35 (after 5 hours)

[Quote]

Это изначально порно, просто в порезанной версии порномоменты удалены.
 

pompilius

Gender: Male

Longevity: 2 years

Posts: 239

Post 15-Jul-2018 21:45 (after 3 years 11 months)

[Quote]

Раздайте или на облако залейте пожалуйста
[Profile] [PM]

Трамвай-фильм

Gender: Male

Longevity: 5 years 3 months

Posts: 1653

Location: Россия

Post 15-Jul-2018 22:45 (after 59 minutes)

[Quote]

6246Это изначально порно, просто в порезанной версии порномоменты удалены.
Судя по эрогированному члену в предпоследнем скрине, ничего там не порезали
[Profile] [PM]

Guest

Gender: Unknown

Longevity: 49 years

Post 18-Jul-2018 02:55 (after 2 days 4 hours)

[Quote]

20704Раздайте или на облако залейте пожалуйста
На облаке
[Profile] [PM]
Display posts:    
Reply to topic

Current time is: 21-Nov 12:19

All times are UTC + 3



You cannot post new topics in this forum
You cannot reply to topics in this forum
You cannot edit your posts in this forum
You cannot delete your posts in this forum
You cannot vote in polls in this forum
You cannot attach files in this forum
You can download files in this forum