Космические охотники / Космические налётчики / Space Raiders (Ховард Р. Коэн) [1983 г., фантастика, DVDRip] АО (В. Котов)

Topic locked
DL-List and Torrent activity
Size:  1.37 GB   |    Registered:  6 years 5 months   |    Completed:  13 times

Seeder not seen: 5 months 24 days

 
   
 
 
 
Author Message

Guest ®

Gender: Unknown

Post 21-Dec-2012 12:26

[Quote]

Космические охотники / Космические налётчики / Space Raiders
Год выпуска: 1983
Страна: США
Жанр: фантастика, боевик, приключения
Продолжительность: 01:19:06
Перевод: Авторский (одноголосый) Вячеслав Котов
Режиссер: Ховард Р. Коэн
В ролях:
Vince Edwards ... Hawk
David Mendenhall ... Peter
Patsy Pease ... Amanda
Thom Christopher ... Flightplan
Luca Bercovici ... Ace
Drew Snyder ... Aldebarian
Ray Stewart ... Zariatin
George Dickerson ... Tracton
Michael Miller ... Lou
Virginia Kiser ... Janeris
Don Washburn ... Jessup
William Boyett ... Taggert
Howard Dayton ... Elmer
Dick Miller ... Crazy Mel
Elizabeth Charlton ... Cookie
Описание: Однажды мальчуган по имени Питер, игравший на складе компании, где работают его родители, был потревожен вторжением группы космических пиратов, которые убивают множество охранников компании, забираются на грузовой звездолет и улетают. Правда, испугавшийся Питер вместо того, чтобы бежать куда глаза глядят, тихонько спрятался внутри этого корабля. Когда пираты обнаруживают его, Питер просит, чтобы они вернули его на родную планету. Капитан пиратов обещает сделать это, когда они оторвутся от преследователей. Тем временем компания посылает вдогонку скоростной боевой звездолет, предназначенный для уничтожения кораблей противников…
Качество: DVDRip
Формат: AVI
Видео: xvid, 2274 кбит/с, 688x528, 25 к/с
Аудио: Русский АО (Котов) (AC3, 2 ch, 192 Кбит/с)


Пример русского перевода:

Релиз

Здесь представлен рип с немецкого DVD5 R2 издания.
Для Украины: рип дополнительно залит в файлохранилище
Для удаления,добавления и извлечения дорожек в mkv используйте бесплатную портативную mkvmerge GUI 6.2.0
Для присоединения потом дорожек к avi воспользуйтесь VirtualDubMod

Дополнительно

рейтинг MPAA рекомендуется присутствие родителей
слоган «The ultimate adventure in space»
Also Known As (AKA)
Epidromeis tou diastimatos Greece (video title)
Ryövärit Finland (video title)
Star Child
Weltraumpiraten West Germany

Знаете ли вы, что...

Отзывы

Фильм хороший, в духе "Star Wars" и сериала "Firefly". Жаль только, что озвучка поверх немецкого даба. Вот если бы присутствовала оригинальная дорожка с субтитрами, это был бы совсем другой уровень качества. Мечты-мечты...
---------------------------
На немецком издании была только одна дорожка - немецкая.
Английский оригинал выходил только на VHS
--------------------------------------------
Оказывается, "тутошние космические перестрелки" взяты из "Битвы за пределами звёзд".
----------------------------------------------

Рецензия

MediaInfo

Общее
Полное имя : F:\Space.Raiders.1983.DVDRip.Xvid.AC3-Zombie.Lee.avi
Формат : AVI
Формат/Информация : Audio Video Interleave
Размер файла : 1,37 Гбайт
Продолжительность : 1 ч. 19 м.
Общий поток : 2476 Кбит/сек
Библиотека кодирования : VirtualDub build 33790/release
Видео
Идентификатор : 0
Формат : MPEG-4 Visual
Профиль формата : Advanced Simple@L5
Параметр BVOP формата : 1
Параметр QPel формата : Нет
Параметр GMC формата : Без точки перехода
Параметр матрицы формата : Default (MPEG)
Идентификатор кодека : XVID
Идентификатор кодека/Подсказка : XviD
Продолжительность : 1 ч. 19 м.
Битрейт : 2274 Кбит/сек
Ширина : 688 пикселей
Высота : 528 пикселей
Соотношение сторон : 4:3
Частота кадров : 25,000 кадров/сек
Цветовое пространство : YUV
Субдискретизация насыщенности : 4:2:0
Битовая глубина : 8 бит
Тип развёртки : Прогрессивная
Метод сжатия : С потерями
Бит/(Пиксели*Кадры) : 0.250
Размер потока : 1,26 Гбайт (92%)
Библиотека кодирования : XviD 64
Аудио
Идентификатор : 1
Формат : AC-3
Формат/Информация : Audio Coding 3
Расширение режима : CM (complete main)
Параметр Endianness формата : Big
Идентификатор кодека : 2000
Продолжительность : 1 ч. 19 м.
Вид битрейта : Постоянный
Битрейт : 192 Кбит/сек
Каналы : 2 канала
Расположение каналов : Front: L R
Частота : 48,0 КГц
Битовая глубина : 16 бит
Метод сжатия : С потерями
Размер потока : 109 Мбайт (8%)
Выравнивание : Соединение по промежуткам
Продолжительность промежутка : 40 мс. (1,00 видеокадр)
Время предзагрузки промежутка : 512 мс.

Скриншоты














cd Рип дополнительно залит на ОБЛАКО cd2
Space.Raiders.1983.DVDRip.Xvid.AC3-Zombie.Lee.avi.torrent
 GOLD TORRENT! DOWNLOAD TRAFFIC DOES NOT CONSIDER! 
Torrent: Registered [ 2013-06-15 02:49 ]

Download .torrent

Download

14 KB

Status: checked
Completed: 13 times
Size: 1.37 GB
 
 
Display posts:    
Topic locked

Current time is: 21-Nov 11:57

All times are UTC + 3



You cannot post new topics in this forum
You cannot reply to topics in this forum
You cannot edit your posts in this forum
You cannot delete your posts in this forum
You cannot vote in polls in this forum
You cannot attach files in this forum
You can download files in this forum