Ужас на морском дне / Terror Beneath the Sea / The Terror Beneath the Sea / Kaitei daisensô (Хайме Сато ) [1966 г., ужасы, фантастика, BDRip-1080p] ЛО (den904), СТ (kosmoaelita-Severnyj)

Reply to topic
 
Author Message

admin ®

Gender: Male

Longevity: 8 years

Posts: 4794

Post 16-Dec-2012 17:56

[Quote]

Ужас на морском дне / Terror Beneath the Sea / The Terror Beneath the Sea / Kaitei daisensô
Релиз - kosmoaelita. com
Год выпуска: 1966
Страна: США, Япония
Жанр: ужасы, фантастика,
Продолжительность: 01:19:06
Перевод 1: ЛО (kosmoaelita,den904 )
Перевод 2: Субтитры kosmoaelita-Severnyj
Режиссер: Хайме Сато /
В ролях: Сонни Чиба, Пегги Нил, Франц Грубер, Steve Queens, Andre Husse, Эрик Нилсо, Eivary Keller, Хайме Сато, Харольд Конуэй, Майк Данин
Описание: В ходе испытаний новой торпеды очевидцы замечают в воде некое необычное существо. Надев акваланги, журналисты Кен и Дженни отправляются на его поиски и попадают в плен к сумасшедшему профессору Муру, отстроившему на дне океана секретную научную базу. В планы Мура входит создание армии послушных ему амфибий-мутантов, которых он называет «водными киборгами», и последующий захват мира.
Качество: BDRip-1080p
Формат: MKV
Видео: x264, 11500 кбит/с, 1516x1080, 24 к/с
Аудио 1: Русский ЛО (den904) (AC3, 2 ch, 640 Кбит/с)
Аудио 2: Английский (AC3, 2 ch, 640 Кбит/с)
Субтитры : Русские (Severnyj), Английские
Работа над релизом:
Видеоряд на найден на rarbg2018.org
Перевод на русский с англ. субтитров по заказу kosmoaelita.com - Severnyj
Русская озвучка по заказу kosmoaelita.com - den904




Пример русской озвучки

Дополнительно

Also Known As (AKA)
Water Cyborg (undefined) / Japan (English title)
Battle Beneath the Sea (undefined) (literal English title)
I mostri della città sommersa Italy
La malédiction des grands fonds France (video title)
The Great Undersea War (undefined)
The Terror Beneath the Sea USA
UX-Bluthund - Tauchfahrt des Schreckens West Germany (imdb display title)
Water Cyborgs (undefined)

Рецензия

MediaInfo

Общее
Уникальный идентификатор : 221369283393320381994864860297463300764 (0xA68A2C54928F87C68F8231A0290B829C)
Полное имя : Q:\The Terror Beneath the Sea 1966.x264.BDRip.1080p.Rus.kosmoaelita.mkv
Формат : Matroska
Версия формата : Version 4
Размер файла : 7,07 Гбайт
Продолжительность : 1 ч. 19 м.
Общий поток : 12,8 Мбит/сек
Название фильма : Ужас на морском дне / Terror Beneath the Sea / Kaitei daisensô / 1966 / kosmoaelita
Дата кодирования : UTC 2020-03-04 21:13:59
Программа кодирования : mkvmerge v6.6.0 ('The Edge Of The In Between') built on Dec 1 2013 17:55:00
Библиотека кодирования : libebml v1.3.0 + libmatroska v1.4.1
Attachments : poster.jpg
Видео
Идентификатор : 1
Формат : AVC
Формат/Информация : Advanced Video Codec
Профиль формата : High@L4.1
Настройки формата : CABAC / 4 Ref Frames
Параметр CABAC формата : Да
Параметр RefFrames формата : 4 кадра
Идентификатор кодека : V_MPEG4/ISO/AVC
Продолжительность : 1 ч. 19 м.
Битрейт : 11,5 Мбит/сек
Ширина : 1516 пикселей
Высота : 1080 пикселей
Соотношение сторон : 1,404
Режим частоты кадров : Постоянный
Частота кадров : 24,000 кадра/сек
Цветовое пространство : YUV
Субдискретизация насыщенности : 4:2:0
Битовая глубина : 8 бит
Тип развёртки : Прогрессивная
Бит/(Пиксели*Кадры) : 0.293
Размер потока : 6,22 Гбайт (88%)
Заголовок : http://kosmoaelita.com/viewtopic.php?t=419
Библиотека кодирования : x264 core 148 r2748 97eaef2
Настройки программы : cabac=1 / ref=4 / deblock=1:-2:-2 / analyse=0x3:0x113 / me=umh / subme=9 / psy=1 / psy_rd=1.00:0.15 / mixed_ref=1 / me_range=16 / chroma_me=1 / trellis=2 / 8x8dct=1 / cqm=0 / deadzone=21,11 / fast_pskip=1 / chroma_qp_offset=-3 / threads=24 / lookahead_threads=3 / sliced_threads=0 / nr=0 / decimate=1 / interlaced=0 / bluray_compat=0 / constrained_intra=0 / bframes=3 / b_pyramid=2 / b_adapt=1 / b_bias=0 / direct=3 / weightb=1 / open_gop=0 / weightp=2 / keyint=250 / keyint_min=25 / scenecut=40 / intra_refresh=0 / rc_lookahead=50 / rc=2pass / mbtree=1 / bitrate=11500 / ratetol=1.0 / qcomp=0.60 / qpmin=0 / qpmax=69 / qpstep=4 / cplxblur=20.0 / qblur=0.5 / vbv_maxrate=31250 / vbv_bufsize=31250 / nal_hrd=none / filler=0 / ip_ratio=1.40 / aq=1:1.00
Язык : English
Default : Да
Forced : Нет
Аудио #1
Идентификатор : 2
Формат : AC-3
Формат/Информация : Audio Coding 3
Коммерческое название : Dolby Digital
Идентификатор кодека : A_AC3
Продолжительность : 1 ч. 19 м.
Вид битрейта : Постоянный
Битрейт : 640 Кбит/сек
Каналы : 2 канала
ChannelLayout : L R
Частота : 48,0 КГц
Частота кадров : 31,250 кадров/сек (1536 SPF)
Метод сжатия : С потерями
Размер потока : 362 Мбайт (5%)
Заголовок : Русский ЛО (den904 для kosmoaelita.com)
Язык : Russian
ServiceKind/String : Complete Main
Default : Да
Forced : Нет
Аудио #2
Идентификатор : 3
Формат : AC-3
Формат/Информация : Audio Coding 3
Коммерческое название : Dolby Digital
Идентификатор кодека : A_AC3
Продолжительность : 1 ч. 19 м.
Вид битрейта : Постоянный
Битрейт : 640 Кбит/сек
Каналы : 2 канала
ChannelLayout : L R
Частота : 48,0 КГц
Частота кадров : 31,250 кадров/сек (1536 SPF)
Метод сжатия : С потерями
Размер потока : 362 Мбайт (5%)
Язык : English
ServiceKind/String : Complete Main
Default : Нет
Forced : Нет
Текст #1
Идентификатор : 4
Формат : PGS
Режим смешивания : zlib
Идентификатор кодека : S_HDMV/PGS
Идентификатор кодека/Информация : Picture based subtitle format used on BDs/HD-DVDs
Заголовок : Русский (kosmoaelita-Severnyj) .PGS
Язык : Russian
Default : Да
Forced : Нет
Текст #2
Идентификатор : 5
Формат : UTF-8
Идентификатор кодека : S_TEXT/UTF8
Идентификатор кодека/Информация : UTF-8 Plain Text
Заголовок : Русский (kosmoaelita-Severnyj) .srt
Язык : Russian
Default : Нет
Forced : Нет
Текст #3
Идентификатор : 6
Формат : UTF-8
Идентификатор кодека : S_TEXT/UTF8
Идентификатор кодека/Информация : UTF-8 Plain Text
Заголовок : SDH
Язык : English
Default : Нет
Forced : Нет
Меню
00:00:00.000 : en:Chapter 01
00:01:21.125 : en:Chapter 02
00:07:07.250 : en:Chapter 03
00:08:41.625 : en:Chapter 04
00:14:38.167 : en:Chapter 05
00:16:25.750 : en:Chapter 06
00:20:22.042 : en:Chapter 07
00:24:55.708 : en:Chapter 08
00:27:22.458 : en:Chapter 09
00:31:52.250 : en:Chapter 10
00:35:49.792 : en:Chapter 11
00:38:23.167 : en:Chapter 12
00:40:42.000 : en:Chapter 13
00:41:33.292 : en:Chapter 14
00:46:03.292 : en:Chapter 15
00:49:00.042 : en:Chapter 16
00:53:53.708 : en:Chapter 17
00:55:13.250 : en:Chapter 18
01:00:58.958 : en:Chapter 19
01:02:37.250 : en:Chapter 20
01:06:46.833 : en:Chapter 21
01:10:41.167 : en:Chapter 22
01:16:25.042 : en:Chapter 23

Пример субтитров

1
00:00:01,305 --> 00:00:07,226
"УЖАС НА МОРСКОМ ДНЕ"
(The Terror Beneath the Sea, 1966г)
2
00:00:09,305 --> 00:00:15,226
Релиз
www. kosmoaelita. com
3
00:01:21,581 --> 00:01:23,690
Наша цель, подводная лодка
в 20 градусах по левому борту, сэр.
4
00:01:24,350 --> 00:01:27,293
Приготовьтесь к преследованию
Приготовьтесь к преследованию.
5
00:01:27,387 --> 00:01:28,798
Приготовьтесь к преследованию.
6
00:01:37,363 --> 00:01:39,808
Боевая тревога.
Боевая тревога.
7
00:01:43,503 --> 00:01:45,005
Цель приближается
к зоне поражения, сэр.
8
00:01:45,105 --> 00:01:49,186
Приготовить первую торпеду.
Приготовить первую торпеду.
9
00:01:51,911 --> 00:01:53,515
Прицел на 4 градуса.
10
00:01:53,613 --> 00:01:56,253
Показания радиолокатора -
ноль плюс четыре.
11
00:01:56,349 --> 00:01:58,329
Показания радиолокатора -
ноль плюс четыре.
12
00:01:58,418 --> 00:02:00,091
Расстояние проверено
по телеметрической шкале.
13
00:02:00,186 --> 00:02:02,860
Расстояние проверено
по телеметрической шкале.
14
00:02:02,956 --> 00:02:04,902
Все системы проверены, сэр.
15
00:02:04,991 --> 00:02:05,901
Командующий, они готовы.
16
00:02:05,992 --> 00:02:07,164
Хорошо.
17
00:02:10,830 --> 00:02:14,835
Дамы и господа,
представители прессы,
18
00:02:14,934 --> 00:02:16,709
со стороны командования
Тихоокеанского флота
19
00:02:16,803 --> 00:02:18,146
позвольте пригласить вас на борт
20
00:02:18,238 --> 00:02:22,817
для просмотра презентации
о новой самонаводящейся торпеде.
-----------------------------
628
01:18:10,252 --> 01:18:14,428
Да, да, теперь все хорошо.
629
01:18:14,523 --> 01:18:16,935
Да, я в порядке.
630
01:18:42,250 --> 01:18:43,752
Привет, Дженни! Кен!
631
01:18:43,852 --> 01:18:45,456
Привет!
632
01:18:45,554 --> 01:18:46,726
Привет!
633
01:18:46,822 --> 01:18:49,132
Приятного отдыха!
634
01:18:53,822 --> 01:18:59,132
Перевод с англ. - Severnyj
Ред. - sasha20072007
декабрь, 2012 года

Скриншоты










Скринлист



Last edited by admin on 2012-12-25 03:19; edited 2 times in total
[Profile] [PM]

admin ®

Gender: Male

Longevity: 8 years

Posts: 4794

Post 25-Dec-2012 01:18 (after 8 days)

[Quote]

Торрент перезалит.Добавлены субтитры
[Profile] [PM]

Guest

Gender: Unknown

Post 25-Dec-2012 07:30 (after 6 hours)

[Quote]

"Амфибии-мутанты" - это хорошо.)
 

Guest

Gender: Unknown

Post 07-Jul-2013 12:14 (after 6 months 13 days)

[Quote]

Добавлена озвучка от den904
 

kosmoaelita

Gender: Male

Longevity: 8 years

Posts: 1638

Post 05-Mar-2020 00:25 (after 6 years 7 months)

[Quote]

Замена на BDRip-1080p
Немецкий блюр без реставрации
[UX Bluthund - Tauchfahrt des Schreckens Blu-rayGermany
DigiBook / The Terror Beneath the Sea | Limited Edition Mediabook Cover A 1966 | 84 min | Rated FSK-16 | Feb 28, 2020 (New Release)]

[Profile] [PM]

pompilius

Gender: Male

Longevity: 2 years 10 months

Posts: 369

Post 24-May-2020 06:28 (after 2 months 20 days)

[Quote]

Раздайте по возможности
[Profile] [PM]
Display posts:    
Reply to topic

Current time is: 20-Sep 14:42

All times are UTC + 3



You cannot post new topics in this forum
You cannot reply to topics in this forum
You cannot edit your posts in this forum
You cannot delete your posts in this forum
You cannot vote in polls in this forum
You cannot attach files in this forum
You cannot download files in this forum