Под несчастливой звездой (ТВ) / Starcrossed TV Movie (Джеффри Блум / Jeffrey Bloom) [1985 г., фантастика, мелодрама, DVDRip] АО (А.Алексеев)

Reply to topic
DL-List and Torrent activity
Size:  1.46 GB   |    Registered:  6 years 11 months   |    Completed:  5 times

Seeder not seen: 10 months 18 days

 
   
 
 
 
Author Message

admin ®

Gender: Male

Longevity: 7 years 2 months

Posts: 4721

Post 16-Dec-2012 00:20

[Quote]

Под несчастливой звездой (ТВ) / Starcrossed TV Movie
Год выпуска: 1985
Страна: США, Fries Entertainment
Жанр: фантастика, мелодрама
Продолжительность: 01:34:57
Перевод: Авторский (одноголосый) А.Алексеев
Режиссер: Джеффри Блум / Jeffrey Bloom
В ролях: Джеймс Спэйдер, Белинда Бауэр, Петер Кованко, Кларк Джонсон, Жаклин Брукс, Чак Шамата, Джеймс Кидни, Фред Ли, Барбара Барнс-Хопкинс, Энди Мэтон
Описание: Фильм вам покажет историю о любви между парнем и девушкой с другой планеты.
Качество: DVDRip
Формат: AVI
Видео: xvid, 1799 кбит/с, 640x480, 29.97 к/с
Аудио 1: Русский (AC3, 2 ch, 192 Кбит/с)
Аудио 2: Английский (AC3, 2 ch, 192 Кбит/с)


Релиз

Кривой рип - с CG.
Оцифровка русской дорожки выполнена: Stepanenko.P.V.
Синхр. русской дорожки к ДВДРипу - sasha20072007
ДВДРип примерно на одну минуту длиннее.Длинные звуковые вставки взяты с более качественной англ. дорожки.
Сравнение: kosmoaelita.com vs. rutracker
Для Украины: рип дополнительно залит в файлохранилище
Для удаления и добавления дорожек в mkv используйте бесплатную mkvmerge GUI 5.80

Дополнительно

Also Known As (AKA)
Das Girl vom anderen Stern West Germany
L'étoile inconnue France
Mi querida extraterrestre Spain
Pakene! Finland
Pera apo ti Gi Greece (video title)
Pericolo dallo spazio Italy (imdb display title)
Rossz csillagzat Hungary (imdb display title)
Starcross West Germany
Starcrossed Norway (imdb display title)

MediaInfo

Общее
Полное имя : F:\Под несчастливой звездой Starcrossed 1985.XviD.DVDRip.avi
Формат : AVI
Формат/Информация : Audio Video Interleave
Размер файла : 1,46 Гбайт
Продолжительность : 1 ч. 34 м.
Общий поток : 2201 Кбит/сек
Программа кодирования : VirtualDubMod 1.5.10.3 (build 2550/release)
Библиотека кодирования : VirtualDubMod build 2550/release
Видео
Идентификатор : 0
Формат : MPEG-4 Visual
Профиль формата : Advanced Simple@L5
Параметр BVOP формата : 2
Параметр QPel формата : Нет
Параметр GMC формата : Без точки перехода
Параметр матрицы формата : Default (H.263)
Идентификатор кодека : XVID
Идентификатор кодека/Подсказка : XviD
Продолжительность : 1 ч. 34 м.
Битрейт : 1799 Кбит/сек
Ширина : 640 пикселей
Высота : 460 пикселей
Соотношение сторон : 1,391
Частота кадров : 29,970 кадров/сек
Цветовое пространство : YUV
Субдискретизация насыщенности : 4:2:0
Битовая глубина : 8 бит
Тип развёртки : Прогрессивная
Метод сжатия : С потерями
Бит/(Пиксели*Кадры) : 0.204
Размер потока : 1,19 Гбайт (82%)
Библиотека кодирования : XviD 63
Аудио #1
Идентификатор : 1
Формат : AC-3
Формат/Информация : Audio Coding 3
Расширение режима : CM (complete main)
Параметр Endianness формата : Big
Идентификатор кодека : 2000
Продолжительность : 1 ч. 34 м.
Вид битрейта : Постоянный
Битрейт : 192 Кбит/сек
Каналы : 2 канала
Расположение каналов : Front: L R
Частота : 48,0 КГц
Битовая глубина : 16 бит
Метод сжатия : С потерями
Размер потока : 130 Мбайт (9%)
Выравнивание : Разделение по промежуткам
Продолжительность промежутка : 33 мс. (1,00 видеокадр)
Время предзагрузки промежутка : 500 мс.
Заголовок : Русский (А.Алексеев)
Аудио #2
Идентификатор : 2
Формат : AC-3
Формат/Информация : Audio Coding 3
Расширение режима : CM (complete main)
Параметр Endianness формата : Big
Идентификатор кодека : 2000
Продолжительность : 1 ч. 34 м.
Вид битрейта : Постоянный
Битрейт : 192 Кбит/сек
Каналы : 2 канала
Расположение каналов : Front: L R
Частота : 48,0 КГц
Битовая глубина : 16 бит
Метод сжатия : С потерями
Размер потока : 130 Мбайт (9%)
Выравнивание : Разделение по промежуткам
Продолжительность промежутка : 33 мс. (1,00 видеокадр)
Время предзагрузки промежутка : 500 мс.
Заголовок : Английский
cd Рип дополнительно залит на ОБЛАКО cd2
Под несчастливой звездой Starcrossed 1985.XviD.DVDRip.avi.torrent
Torrent: Registered [ 2012-12-16 00:20 ]

Download .torrent

Download

59 KB

Status: checked
Completed: 5 times
Size: 1.46 GB
 
[Profile] [PM]
Display posts:    
Reply to topic

Current time is: 21-Nov 12:08

All times are UTC + 3



You cannot post new topics in this forum
You cannot reply to topics in this forum
You cannot edit your posts in this forum
You cannot delete your posts in this forum
You cannot vote in polls in this forum
You cannot attach files in this forum
You can download files in this forum