Корабль пришельцев (Сергей Никоненко) [1985 г., Фантастика, драма, DVD5] СССР

Reply to topic
DL-List and Torrent activity
Size:  3.98 GB   |    Registered:  6 years 10 months   |    Completed:  5 times

Seeder not seen: 2 hours 5 minutes

 
   
 
 
 
Author Message

admin ®

Gender: Male

Longevity: 7 years 1 month

Posts: 4725

Location: Україна

Post 14-Dec-2012 23:50

[Quote]

Корабль пришельцев
Год выпуска: 1985
Страна: СССР, Центральная Киностудия Детских И Юношеских Фильмов Им. М.Горького
Жанр: Фантастика, драма
Продолжительность: 01:32:42
Перевод: Не требуется
Режиссер: Сергей Никоненко
Сценарий: Владимир Губарев
В ролях: Олег Табаков, Екатерина Воронина, Сергей Никоненко, Райво Трасс, Валерий Гатаев, Владимир Стеклов, Наталья Аринбасарова, Александр Новиков, Алексей Ванин, Ольга Матешко, Михаил Еремеев, Николай Дупак, Людмила Иванова, Яков Беленький, Олег Голубицкий
Описание: Рассказ о пробном запуске одного из первых кораблей "Восток", осуществленном за 117 дней до полета Юрия Гагарина...1960 год. Советские ученые осуществили пробный запуск космического корабля "Восток". Полет окончился неудачей. Одна из ступеней ракеты не отделилась вместе со спусковой капсулой. Чтобы разобраться в причинах аварии, необходимо было срочно найти корабль. В Академию Наук пришла телеграмма от метеоролога из сибирского городка, который сообщал, что видел падение светящегося объекта, возможно - НЛО.
Качество: DVD5
Формат: MPEG
Видео: mpeg2, 5969 кбит/с, 720x576@768x576, 25 к/с
Аудио 1: Русский (AC3, 2 ch, 192 Кбит/с)

[imdb][/imdb]

http://video.mail.ru/mail/viktorgolomedow/319/4025.html

Релиз

Для Украины: оригинальный ДВД дополнительно залит в файлохранилище
Для удаления и добавления дорожек в mkv используйте бесплатную mkvmerge GUI 5.80

Дополнительно

Отзывы

МИ-8 1960 ГОДУ НЕ БЫЛО ЕЩЕ ПЕРВЫЙ ПРОТОТИП ПОДНЯЛСЯ 1961Г А В ФИЛЬМЕ ОНИ УЖЕ ЛЕТАЮТ ПОЛНЫМ ХОДОМ))))
--------------------------------------------------
Да, к сожалению, к моменту съёмок фильма не удалось найти летающие Ми-4 и Ил-14 (кстати, последние, вероятно, просто плохо искали), отчего их и заменили на Ми-8 и Ан-26, которых в 1960 году просто не было. Но это ладно. Мне больше не понравилось изменение сюжета и исчезновение из него будущих космонавтов Олега Макарова и Георгия Гречко - тогда молодых инженеров КБ Королёва. В повести эпизод с Олегом Макаровым весьма живописно открывает характер Королёва. И никому там пальцев при взрыве пиропатронов не оторвало...
----------------------------------------------------
И всё же при просмотре фильма маловато "примет времени", слабое ощущение, что на дворе 1960 год. Начать с того, что Центра управления полётами, откуда Главный наблюдает старт ракеты, в 1960 году просто не было, до его появления остаётся ещё полтора десятилетия. На экранах транслируется старт ракеты-носителя с кораблём "Союз", хотя ведь можно было найти плёнки со стартов либо "Востоков", либо биоспутников,которые вариантом того же "Востока" и являлись. Много слишком модерновых для изображаемого времени деталей (те же телефонные аппараты, например). И если с "не теми" самолётами и вертолётами (о чём я уже писал), можно смириться, то детали интерьеров, одежды - целиком на совести организаторов съёмок. Тут уж вечная беда советского кино - пренебрежение деталями, не позволяющее правдоподобно отображать на экране события двадцати- и тридцатилетней давности. Та же беда в фильме "Укрощение огня". Особливо женский брючный костюм в 1957 году
-------------------------------------------------------

MediaInfo


Общее
Полное имя : F:\корабль пришельцев\VIDEO_TS\VTS_01_1.VOB
Формат : MPEG-PS
Размер файла : 1024 Мбайт
Продолжительность : 22 м.
Общий поток : 6286 Кбит/сек
Видео
Идентификатор : 224 (0xE0)
Формат : MPEG Video
Версия формата : Version 2
Профиль формата : Main@Main
Параметр BVOP формата : Да
Параметр матрицы формата : Выборочная
Продолжительность : 22 м.
Битрейт : 5969 Кбит/сек
Максимальный битрейт : 9000 Кбит/сек
Ширина : 720 пикселей
Высота : 576 пикселей
Соотношение сторон : 4:3
Частота кадров : 25,000 кадров/сек
Стандарт вещания : PAL
Цветовое пространство : YUV
Субдискретизация насыщенности : 4:2:0
Битовая глубина : 8 бит
Тип развёртки : Чересстрочная
Порядок развёртки : Верхнее поле первое
Метод сжатия : С потерями
Бит/(Пиксели*Кадры) : 0.576
Размер потока : 972 Мбайт (95%)
Аудио
Идентификатор : 189 (0xBD)-128 (0x80)
Формат : AC-3
Формат/Информация : Audio Coding 3
Расширение режима : CM (complete main)
Параметр Endianness формата : Big
Режим смешивания : DVD-Video
Продолжительность : 6 с. 464 мс.
Вид битрейта : Постоянный
Битрейт : 192 Кбит/сек
Каналы : 2 канала
Расположение каналов : Front: L R
Частота : 48,0 КГц
Битовая глубина : 16 бит
Метод сжатия : С потерями
Размер потока : 152 Кбайт (0%)
Меню

Скриншоты




корабль пришельцев.torrent
 GOLD TORRENT! DOWNLOAD TRAFFIC DOES NOT CONSIDER! 
Torrent: Registered [ 2012-12-14 23:50 ]

Download .torrent

Download

21 KB

Status: checked
Completed: 5 times
Size: 3.98 GB
 
[Profile] [PM]
Display posts:    
Reply to topic

Current time is: 21-Oct 06:01

All times are UTC + 3



You cannot post new topics in this forum
You cannot reply to topics in this forum
You cannot edit your posts in this forum
You cannot delete your posts in this forum
You cannot vote in polls in this forum
You cannot attach files in this forum
You can download files in this forum