Двенадцать ноль одна пополуночи (ТВ) / 12:01 (Джек Шолдер / Jack Sholder) [1993 г., Фантастика, триллер, мелодрама, комедия, DVDRip-AVC] ЛД (diamond38 и ludusha), АО (Кашкин, Дольский), СТ (Corr Rexx)

Reply to topic
 
Author Message

admin ®

Gender: Male

Longevity: 7 years 2 months

Posts: 4721

Post 12-Dec-2012 10:57

[Quote]

Двенадцать ноль одна пополуночи (ТВ) / 12:01
Год выпуска: 1993
Страна: США, Chanticleer Films, Fox West Pictures Inc., New Line Television
Жанр: Фантастика, триллер, мелодрама, комедия
Продолжительность: 01:34:15
Перевод: ЛД (diamond38 и ludusha), АО (Кашкин, Дольский), СТ (Corr Rexx)
Режиссер: Джек Шолдер / Jack Sholder
В ролях: Джонатан Силвермен, Хелен Слейтер, Николас Сурови, Робин Бартлетт, Джереми Пивен, Констанс Мари, Гленн Моршауэр, Мартин Ландау, Пэкстон Уайтхед, Шерил Андерсон, Джузеппе Эндрюс, Фрэнк Коллисон, Эд Крик, Джонатан Эмерсон, Мэри Хейл, Марк Кристофер Лоуренс, Уилл Лескин, Эрик Манскер, Марк Фелан, Хоси Сандерс, Энн Ши, Лара Стайник, Дэнни Трехо, Джим Тернер, Рэй Виктор
Описание: Коллегу и давнюю любовь главного героя неожиданно убивают. Он напивается в баре и получает удар током от лампы, который заставляет его переживать этот день снова и снова. Каждый день ровно в 12:01 протагонист начинает проживать этот день заново.

Доп. информация:
1. "12:01" вышел на экраны на 5 месяцев раньше «Дня сурка».
2. "12:01" не подражание «Дню сурка», фильм является экранизацией книги Ричарда Лупоффа 1973 года.
3. В сюжете фильма нашлось место и роману, и дружбе, и научной фантастике, и криминалу, и проблемам офисного планктона.

Качество: DVDRip-AVC
Формат: MKV
Видео: x264, 1278 кбит/с, 720x464@853x464, 23.976 к/с, crf=18
Аудио 1: Русский diamond38 и ludusha (AC3, 2 ch, 192 Кбит/с)
Аудио 1: Русский Кашкин (AC3, 2 ch, 192 Кбит/с)
Аудио 1: Русский Дольский (AC3, 1 ch, 96 Кбит/с)
Аудио 2: Английский (AC3, 6 ch, 448 Кбит/с)
Субтитры : Русские (Corr Rexx)


Релиз

Рип с ДВД5 - sasha20072007
Лог кодирования и постеры - в контейнере.Звук. дорожки:
Аудио 1: 48 kHz,AC3, 3/2+LFE ch, 448Kbps, English
Перевод 1: Любительский (двухголосый закадровый) diamond38 и ludusha, сделанный в 2010 году звукорежиссёром и режиссёром ТВ.
Перевод 2: Авторский (одноголосый закадровый) Кашкин, начала 90-х на VHS-аппаратуре.
Перевод 3: Авторский (одноголосый закадровый) Дольский, начала 90-х на VHS-аппаратуре, отсутствовал перевод диалогов в течении 2-х минут: с 1.03.00 по 1.05.20 - заполнен Кашкиным.
Cубтитры: русские (Corr Rexx)
Для Украины: рип и оригинальный ДВД дополнительно залиты в файлохранилище
Для удаления и добавления дорожек в mkv используйте бесплатную mkvmerge GUI 5.80

Дополнительно

слоган «Gestern noch ermordet. Heute schon verliebt.»
Also Known As (AKA)
12:01 Norway / Portugal
12:01 - A kizökkent idő Hungary
12:01 - Un minuto dopo mezzanotte Italy (imdb display title)
12:01 Uhr Germany
12:01, testigo del tiempo Spain
12h01 - prisonnier du temps France (video title)
Tid att dö... Sweden

Рецензия

После «Дня сурка» и сериала «Day Break» этот фильм смотрится как-то тускло. Кстати, «День сурка» вышел на экраны в том же 1993 году, но на 5 месяцев позже.
Очередная спекуляция на старой мечте человечества научиться хоть как-то влиять на время, чтобы можно было исправить ошибки прошлого. Но тем не менее, местами фильм захватывает и как средство нескучно провести рабочее время на дежурстве в выходной день вполне подходит.
6 из 10
---------------------------------------
Конечно, всем известный «День сурка» смешнее и увлекательнее, актеры там получше, бюджет побольше. Наверняка на тех, кто «12:01 пополуночи» в детстве посмотрел, фильм оказал большее впечатление, иначе бы не искали его так часто. Однако для тв-форматного фильма 16тилетней давности, фильм вполне смотрибельный и интересный: сюжет (в котором нашлось место и роману, и дружбе, и научной фантастике, и криминалу, и проблемам офисного планктона) более-менее увязан; главгерои достаточно обаятельны, да и актеры неплохие.
И, кстати, не факт, что это подражание «Дня сурка»: как оказалось, фильм является экранизацией книги Ричарда Лупоффа 1973 года.
7 из 10

MediaInfo

Общее
Уникальный идентификатор : 198860534962879158719915962549308496857 (0x959B2559FA1128B88FD7352D92B41BD9)
Полное имя : F:\Двенадцать ноль одна пополуночи 12_01 1993.x264.DVDRip.AVC.mkv
Формат : Matroska
Версия формата : Version 4 / Version 2
Размер файла : 1,70 Гбайт
Продолжительность : 1 ч. 34 м.
Общий поток : 2577 Кбит/сек
Название фильма : Двенадцать ноль одна пополуночи / 12:01 / 1993 / rip by sasha20072007 (2012-12-12)
Дата кодирования : UTC 2010-02-22 21:41:31
Программа кодирования : mkvmerge v5.9.0 ('On The Loose') built on Dec 9 2012 15:37:01
Библиотека кодирования : libebml v1.3.0 + libmatroska v1.4.0
Attachment : Yes / Yes / Yes / Yes / Yes / Yes / Yes / Yes
Видео
Идентификатор : 1
Формат : AVC
Формат/Информация : Advanced Video Codec
Профиль формата : High@L4.1
Параметр CABAC формата : Да
Параметр ReFrames формата : 10 кадров
Идентификатор кодека : V_MPEG4/ISO/AVC
Продолжительность : 1 ч. 34 м.
Битрейт : 1623 Кбит/сек
Ширина : 720 пикселей
Высота : 464 пикселя
Соотношение сторон : 1,85:1
Соотношение сторон в оригинале : 1,85:1
Режим частоты кадров : Постоянный
Частота кадров : 23,976 кадра/сек
Цветовое пространство : YUV
Субдискретизация насыщенности : 4:2:0
Битовая глубина : 8 бит
Тип развёртки : Прогрессивная
Бит/(Пиксели*Кадры) : 0.203
Размер потока : 1,05 Гбайт (62%)
Библиотека кодирования : x264 core 125 r2208 d9d2288
Настройки программы : cabac=1 / ref=10 / deblock=1:-1:-2 / analyse=0x3:0x133 / me=umh / subme=10 / psy=1 / psy_rd=1.00:0.15 / mixed_ref=1 / me_range=24 / chroma_me=1 / trellis=2 / 8x8dct=1 / cqm=0 / deadzone=21,11 / fast_pskip=1 / chroma_qp_offset=-3 / threads=4 / lookahead_threads=1 / sliced_threads=0 / nr=0 / decimate=1 / interlaced=0 / bluray_compat=0 / constrained_intra=0 / bframes=10 / b_pyramid=2 / b_adapt=2 / b_bias=0 / direct=3 / weightb=1 / open_gop=0 / weightp=2 / keyint=220 / keyint_min=22 / scenecut=40 / intra_refresh=0 / rc_lookahead=60 / rc=2pass / mbtree=1 / bitrate=1623 / ratetol=1.0 / qcomp=0.60 / qpmin=0 / qpmax=69 / qpstep=4 / cplxblur=20.0 / qblur=0.5 / vbv_maxrate=17500 / vbv_bufsize=14000 / nal_hrd=none / ip_ratio=1.40 / aq=1:0.90
Default : Да
Forced : Нет
Основные цвета : BT.601 PAL
Характеристики трансфера : BT.470 System B, BT.470 System G
Коэффициенты матрицы : BT.601
Аудио #1
Идентификатор : 2
Формат : AC-3
Формат/Информация : Audio Coding 3
Расширение режима : CM (complete main)
Параметр Endianness формата : Big
Идентификатор кодека : A_AC3
Продолжительность : 1 ч. 34 м.
Вид битрейта : Постоянный
Битрейт : 192 Кбит/сек
Каналы : 2 канала
Расположение каналов : Front: L R
Частота : 48,0 КГц
Битовая глубина : 16 бит
Метод сжатия : С потерями
Размер потока : 130 Мбайт (7%)
Заголовок : Русский ЛД (diamond38 и ludusha)
Язык : Russian
Default : Да
Forced : Да
Аудио #2
Идентификатор : 3
Формат : AC-3
Формат/Информация : Audio Coding 3
Расширение режима : CM (complete main)
Параметр Endianness формата : Big
Идентификатор кодека : A_AC3
Продолжительность : 1 ч. 34 м.
Вид битрейта : Постоянный
Битрейт : 96,0 Кбит/сек
Каналы : 1 канал
Расположение каналов : Front: C
Частота : 48,0 КГц
Битовая глубина : 16 бит
Метод сжатия : С потерями
Размер потока : 64,8 Мбайт (4%)
Заголовок : Русский (Кашкин) VHS
Язык : Russian
Default : Нет
Forced : Нет
Аудио #3
Идентификатор : 4
Формат : AC-3
Формат/Информация : Audio Coding 3
Расширение режима : CM (complete main)
Параметр Endianness формата : Big
Идентификатор кодека : A_AC3
Продолжительность : 1 ч. 34 м.
Вид битрейта : Постоянный
Битрейт : 192 Кбит/сек
Каналы : 2 канала
Расположение каналов : Front: L R
Частота : 48,0 КГц
Битовая глубина : 16 бит
Метод сжатия : С потерями
Размер потока : 130 Мбайт (7%)
Заголовок : Русский (Дольский) VHS
Язык : Russian
Default : Нет
Forced : Нет
Аудио #4
Идентификатор : 5
Формат : AC-3
Формат/Информация : Audio Coding 3
Расширение режима : CM (complete main)
Параметр Endianness формата : Big
Идентификатор кодека : A_AC3
Продолжительность : 1 ч. 34 м.
Вид битрейта : Постоянный
Битрейт : 448 Кбит/сек
Каналы : 6 каналов
Расположение каналов : Front: L C R, Side: L R, LFE
Частота : 48,0 КГц
Битовая глубина : 16 бит
Метод сжатия : С потерями
Размер потока : 302 Мбайт (17%)
Заголовок : Англ 5.1 448
Язык : English
Default : Нет
Forced : Нет
Текст
Идентификатор : 6
Формат : VobSub
Режим смешивания : zlib
Идентификатор кодека : S_VOBSUB
Идентификатор кодека/Информация : The same subtitle format used on DVDs
Заголовок : Русский (Corr Rexx)
Язык : Russian
Default : Да
Forced : Нет
Меню
00:00:00.000 : :Chapter 01
00:18:16.467 : :Chapter 02
00:37:41.701 : :Chapter 03
01:01:34.502 : :Chapter 04
01:15:08.669 : :Chapter 05
01:15:31.236 : :Chapter 06
01:26:12.037 : :Chapter 07
01:31:04.104 : :Chapter 08

Скриншоты



Скачать фильм на сервере Яндекса: http://yadi.sk/d/HAdG4X7-4M7XB
[Profile] [PM]
Quick Reply

Name:

            
Heads necessary to send messages to enable JavaScript
Display posts:    
Reply to topic

Current time is: 21-Nov 10:58

All times are UTC + 3



You cannot post new topics in this forum
You can reply to topics in this forum
You cannot edit your posts in this forum
You cannot delete your posts in this forum
You cannot vote in polls in this forum
You cannot attach files in this forum
You cannot download files in this forum