Космический век страницы летописи e01-07x07 [1981 г., Документальный, научно-познавательный, космонавтика, история, SATRip] СССР

Reply to topic
DL-List and Torrent activity
Size:  3.82 GB   |    Registered:  7 years   |    Completed:  1 time

Seeder not seen: 1 month 9 days

 
   
 
 
 
Author Message

admin ®

Gender: Male

Longevity: 7 years 3 months

Posts: 4813

Post 11-Dec-2012 00:47

[Quote]

Космический век страницы летописи e01-07x07
Год выпуска: 1981
Страна: СССР, т/о "Экран"
Жанр: Документальный, научно-познавательный, космонавтика, история
Продолжительность: 06:48:50
Перевод: Не требуется
В ролях: Комментирует фильм журналист В.С.Губарев
Описание: Цикл "Космический век", создан к 20-летию первого полета человека в космос, рассказывает об истории развития отечественной космонавтики до запуска первого искусственного спутника Земли, знакомит с биографиями С.П.Королева и Ю.А.Гагарина. Использованы хроникальные кадры 1920 - 1930-х годов, а также уникальный киноматериал по истории развития отечественной космонавтики, ранее снятый для служебного пользования. Комментирует фильм журналист В.С.Губарев
Фильм 1. С чего начинается Родина (1981 год). - Созданный к 20-летию первого полета человека в космос, рассказывает об истории развития отечественной космонавтики до запуска первого искусственного спутника Земли, знакомит с биографиями С. П. Королева и Ю. А. Гагарина. Использованы хроникальные кадры 20-30-х годов, а также уникальный киноматериал по истории развития отечественной космонавтики, ранее снятый для служебного пользования. Комментирует фильм журналист В. С. Губарев.
Фильм 2. Космическая весна (1981 год). - Рассказывает о первом отряде космонавтов и многогранной работе конструкторского бюро, возглавляемого Главным конструктором ракетно-космических систем академиком С. П. Королевым. В фильме использованы хроникальные кадры 20-30-х годов, а также уникальный киноматериал по истории развития отечественной космонавтики, ранее снятый для служебного пользования. Комментирует фильм журналист В. С. Губарев.
Фильм 3. Первый отряд (1981 год). - Посвящен 20-летию первого полета человека в космос. В картине рассказывается о подготовке и осуществлении первого орбитального космического полета на корабле "Восток", пилотируемом летчиком-космонавтом СССР Ю. А. Гагариным. В фильме использованы хроникальные кадры 20-30-х годов, а также уникальный киноматериал по истории развития отечественной космонавтики, ранее снятый для служебного пользования. Комментирует фильм журналист В. С. Губарев.
Фильм 4. Космодром "Интеркосмос" (1982 год). - О международном сотрудничестве в освоении космоса от запуска первого интернационального спутника Земли "Интеркосмос-1" в 1969 г. до совместного полета советских и американских космонавтов в 1975 г. Комментирует фильм журналист В. С. Губарев.
Фильм 5. Лунная одиссея (1982 год). - О космических экспериментах в районе Луны, о важности этих исследований для науки, а также о совместных полетах в космос интернациональных экипажей. Комментирует фильм журналист В. С. Губарев.
Фильм 6. Бесконечный полет (1985 год). - О проблемах, связанных с длительным пребыванием человека в космосе, о возможности проведения уникальных научных экспериментов, имеющих огромное практическое значение, в частности, для медицины. Комментирует фильм журналист В. С. Губарев.
Фильм 7. Мирные звезды (1986 год). - О двух разных подходах к проблеме освоения космоса. Американской программе милитаризации космоса, стратегической оборонной инициативе США и "звездным войнам" в фильме противопоставлены героические усилия советских людей по мирному освоению космического пространства. Комментирует фильм журналист В. С. Губарев.

Качество: SATRip
Формат: AVI
Видео: xvid, ~ 1100 кбит/с, 720x528, 25 к/с
Аудио: Русский (AC3, 2 ch, 192 Кбит/с)
[kp][/kp]
[imdb][/imdb]

Релиз

Для Украины: рипы залиты в файлохранилище
Для удаления и добавления дорожек в mkv используйте бесплатную mkvmerge GUI 5.80

Дополнительно

Рецензия

MediaInfo

Общее
Полное имя : F:\Космический век.Летописи\kosmicheskiy.vek.letopisi_film2.avi
Формат : AVI
Формат/Информация : Audio Video Interleave
Размер файла : 555 Мбайт
Продолжительность : 59 м.
Общий поток : 1303 Кбит/сек
Программа кодирования : VirtualDubMod 1.5.10.2 (build 2540/release)
Библиотека кодирования : VirtualDubMod build 2540/release
Видео
Идентификатор : 0
Формат : MPEG-4 Visual
Профиль формата : Advanced Simple@L5
Параметр BVOP формата : 2
Параметр QPel формата : Нет
Параметр GMC формата : Без точки перехода
Параметр матрицы формата : Default (MPEG)
Режим смешивания : Сжатый битовый поток
Идентификатор кодека : XVID
Идентификатор кодека/Подсказка : XviD
Продолжительность : 59 м.
Битрейт : 1102 Кбит/сек
Ширина : 720 пикселей
Высота : 528 пикселей
Соотношение сторон : 4:3
Частота кадров : 25,000 кадров/сек
Цветовое пространство : YUV
Субдискретизация насыщенности : 4:2:0
Битовая глубина : 8 бит
Тип развёртки : Прогрессивная
Метод сжатия : С потерями
Бит/(Пиксели*Кадры) : 0.116
Размер потока : 469 Мбайт (85%)
Библиотека кодирования : XviD 1.2.1 (UTC 2008-12-04)
Аудио
Идентификатор : 1
Формат : AC-3
Формат/Информация : Audio Coding 3
Расширение режима : CM (complete main)
Параметр Endianness формата : Big
Идентификатор кодека : 2000
Продолжительность : 59 м.
Вид битрейта : Постоянный
Битрейт : 192 Кбит/сек
Каналы : 2 канала
Расположение каналов : Front: L R
Частота : 48,0 КГц
Битовая глубина : 16 бит
Метод сжатия : С потерями
Задержка видео : 1 с. 508 мс.
Размер потока : 81,8 Мбайт (15%)
Выравнивание : Разделение по промежуткам
Продолжительность промежутка : 40 мс. (1,00 видеокадр)
Время предзагрузки промежутка : 500 мс.

Скриншоты




Космический век.Летописи.torrent
 GOLD TORRENT! DOWNLOAD TRAFFIC DOES NOT CONSIDER! 
Torrent: Registered [ 2012-12-11 00:47 ]

Download .torrent

Download

20 KB

Status: checked
Completed: 1 times
Size: 3.82 GB
 
[Profile] [PM]
Quick Reply

Name:

            
Heads necessary to send messages to enable JavaScript
Display posts:    
Reply to topic

Current time is: 16-Dec 07:44

All times are UTC + 3



You cannot post new topics in this forum
You can reply to topics in this forum
You cannot edit your posts in this forum
You cannot delete your posts in this forum
You cannot vote in polls in this forum
You cannot attach files in this forum
You can download files in this forum