Широта Ноль / Latitude Zero / Ido zero daisakusen ( U.S. Version ) (Исиро Хонда / Ishiro Honda) [1969 г., фантастика, боевик, приключения, DVDRip-AVC] 2хЛО (den904, slavnus), СТ (McGre)

Reply to topic
 
Author Message

admin ®

Gender: Male

Longevity: 7 years 2 months

Posts: 4721

Post 11-Dec-2012 00:07

[Quote]

Широта Ноль / Latitude Zero / Ido zero daisakusen ( U.S. Version )
Год выпуска: 1969
Страна: США, Япония, Ambassador Productions, Don Sharpe Enterprises, National General Pictures, Toho Company
Жанр: фантастика, боевик, приключения
Продолжительность: 01:45:33
Перевод 1: ЛО (den904 по субтитрам от (McGre)
Перевод 2: ЛО (slavnus по субтитрам от (McGre)
Режиссер: Исиро Хонда / Ishiro Honda
В ролях: Джозеф Коттен, Сизар Ромеро, Акира Такарада, Масуми Окада, Ричард Джэкел, Патриция Медина, Тэцу Накамура, Мари Накаяма, Акихико Хирата, Линда Хэйнс, Сусуму Куробе, Харуо Накаджима, Хикару Куроки, Барр Миддлтон, Осман Юсуф
Описание: Трех отважных исследователей подводных глубин: физика и океанографа доктора Кена Таширо, геолога Жюля Массона и журналиста Перри Лаутона, вместе с батискафом смывает с океанского дна извержением подводного вулкана. К счастью, их находит и спасает, взяв на борт своей чудесной подводной лодки Альфа, построенной в 1805 году, капитан Крейг МакКензи.
Он отвозит спасенных бедолаг в секретный подводный город — Широту Ноль, в котором живут и работают, укрывшись от всего мира, выдающиеся ученые со всего света. И всё бы хорошо, только Широту Ноль, как всегда, хочет захватить сумасшедший злой гений доктор Малик с помощью подводной лодки Черная Акула, её капитана, японки Куройги, и группы мутантов — людей-летучих мышей

Качество: DVDRip-AVC
Формат: MKV
Видео: x264, 1452 кбит/с, 720x360@853x360, 23.976 к/с, crf=18
Аудио 1: Русский ЛО den904 (AC3, 6 ch, 448 Кбит/с)
Аудио 2: Английский (AC3, 6 ch, 448 Кбит/с)
Аудио 3: Русский ЛО slavnus (AC3, 2 ch, 192 Кбит/с)
Субтитры : Русские (McGre)
Работа над релизом:
Релиз kosmoselita
Рип с ДВД9 - sasha20072007
Перевод и субтитры - McGre
Русская ЛО озвучка - slavnus
Русская озвучка оп заказу kosmoaelita - den904
Спонсор русской озвучки - Susanin



Пример озвучки от den904:

Трейлер

Релиз

Для Украины: рип и оригинальный ДВД9 дополнительно залиты в файлохранилище
Для удаления и добавления дорожек в mkv используйте бесплатную mkvmerge GUI 5.80

Дополнительно

слоган «Discover the incredible world of tomorrow... 15 miles straight down at LATITUDE ZERO»
Also Known As (AKA)
Latitude Zero Brazil (imdb display title) / USA (imdb display title)
Atragon II International (alternative title) (English title)
Donde el mundo acaba Spain
Ido 0 daisakusen Japan (alternative spelling)
Kaitei Daisenso - Ido Zero Daisakusen (undefined)
Latitude Zero Military Tactics (undefined)
Latitude Zero: Big Military Operation (undefined)
Latitude zéro France
Latitudine zero Italy
Odysseia ston vytho ton thalasson Greece (transliterated ISO-LATIN-1 title)
Paniek in de diepzee Belgium (German title)
Szerokosc geograficzna zero Poland (imdb display title)
U-4000 - Panik unter dem Ozean West Germany

Рецензия

Сложная судьба была у этого фильма. Изначально он задумывался как невжибенный японо-американский блокбастер, прописанность некоторых моделей тому доказательством, но... Через несколько недель после начала съемок американцкие продюсеры жестоко кинули Иширо Хонду, видимо, посчитав, что у Хонды и так денег много, сам справится. В результате бис бабла были оставлены все, американских актеров даже заставили платить самим за проживание в отеле (бедняги!). Но, к чести Иширы, фильм всё же вышел в свет, японцы, видимо, тащились, как удав по стекловате, а мы в две тысячи десятом году имеем возможность снисходительно улыбнуться...
-------------------------------------------------------

MediaInfo

Общее
Уникальный идентификатор : 205137639213084494091131213889519097343 (0x9A54127C3B8938CCA51C548C0FAE15FF)
Полное имя : F:\Latitude Zero 1969.x264.DVDRip.AVC.2xRus.kosmoaelita.mkv
Формат : Matroska
Версия формата : Version 4 / Version 2
Размер файла : 1,91 Гбайт
Продолжительность : 1 ч. 45 м.
Общий поток : 2587 Кбит/сек
Название фильма : Широта Ноль / Latitude Zero / Ido zero daisakusen / U.S. Version 1969 / rip by kosmoaelita (2012-12-10)
Дата кодирования : UTC 2015-01-13 22:44:12
Программа кодирования : mkvmerge v6.6.0 ('The Edge Of The In Between') built on Dec 1 2013 17:55:00
Библиотека кодирования : libebml v1.3.0 + libmatroska v1.4.1
Attachements : untitled1.PNG / untitled2.PNG / untitled.PNG / VTS_01_1_00000000000001.mkv.encoding.log
Видео
Идентификатор : 1
Формат : AVC
Формат/Информация : Advanced Video Codec
Профиль формата : High@L4.1
Параметр CABAC формата : Да
Параметр ReFrames формата : 10 кадров
Идентификатор кодека : V_MPEG4/ISO/AVC
Продолжительность : 1 ч. 45 м.
Битрейт : 1447 Кбит/сек
Ширина : 720 пикселей
Высота : 360 пикселей
Соотношение сторон : 2,35:1
Соотношение сторон в оригинале : 2,40:1
Режим частоты кадров : Постоянный
Частота кадров : 23,976 кадра/сек
Цветовое пространство : YUV
Субдискретизация насыщенности : 4:2:0
Битовая глубина : 8 бит
Тип развёртки : Прогрессивная
Бит/(Пиксели*Кадры) : 0.233
Размер потока : 1,07 Гбайт (56%)
Заголовок : kosmoaelita
Библиотека кодирования : x264 core 125 r2208 d9d2288
Настройки программы : cabac=1 / ref=10 / deblock=1:-1:-2 / analyse=0x3:0x133 / me=umh / subme=10 / psy=1 / psy_rd=1.00:0.15 / mixed_ref=1 / me_range=24 / chroma_me=1 / trellis=2 / 8x8dct=1 / cqm=0 / deadzone=21,11 / fast_pskip=1 / chroma_qp_offset=-3 / threads=4 / lookahead_threads=1 / sliced_threads=0 / nr=0 / decimate=1 / interlaced=0 / bluray_compat=0 / constrained_intra=0 / bframes=10 / b_pyramid=2 / b_adapt=2 / b_bias=0 / direct=1 / weightb=1 / open_gop=0 / weightp=2 / keyint=220 / keyint_min=22 / scenecut=40 / intra_refresh=0 / rc_lookahead=60 / rc=crf / mbtree=1 / crf=18.5 / qcomp=0.60 / qpmin=0 / qpmax=69 / qpstep=4 / vbv_maxrate=17500 / vbv_bufsize=14000 / crf_max=0.0 / nal_hrd=none / ip_ratio=1.40 / aq=1:0.90
Default : Да
Forced : Нет
Основные цвета : BT.601 NTSC
Характеристики трансфера : BT.601
Коэффициенты матрицы : BT.601
Аудио #1
Идентификатор : 2
Формат : AC-3
Формат/Информация : Audio Coding 3
Расширение режима : CM (complete main)
Параметр Endianness формата : Big
Идентификатор кодека : A_AC3
Продолжительность : 1 ч. 45 м.
Вид битрейта : Постоянный
Битрейт : 448 Кбит/сек
Каналы : 6 каналов
Расположение каналов : Front: L C R, Side: L R, LFE
Частота : 48,0 КГц
Битовая глубина : 16 бит
Метод сжатия : С потерями
Размер потока : 338 Мбайт (17%)
Заголовок : Русский ЛО (den904 для kosmoaelita.com)
Язык : Russian
Default : Да
Forced : Нет
Аудио #2
Идентификатор : 3
Формат : AC-3
Формат/Информация : Audio Coding 3
Расширение режима : CM (complete main)
Параметр Endianness формата : Big
Идентификатор кодека : A_AC3
Продолжительность : 1 ч. 45 м.
Вид битрейта : Постоянный
Битрейт : 448 Кбит/сек
Каналы : 6 каналов
Расположение каналов : Front: L C R, Side: L R, LFE
Частота : 48,0 КГц
Битовая глубина : 16 бит
Метод сжатия : С потерями
Размер потока : 338 Мбайт (17%)
Заголовок : Eng 5.1 448
Язык : English
Default : Нет
Forced : Нет
Аудио #3
Идентификатор : 4
Формат : AC-3
Формат/Информация : Audio Coding 3
Расширение режима : CM (complete main)
Параметр Endianness формата : Big
Идентификатор кодека : A_AC3
Продолжительность : 1 ч. 45 м.
Вид битрейта : Постоянный
Битрейт : 192 Кбит/сек
Каналы : 2 канала
Расположение каналов : Front: L R
Частота : 48,0 КГц
Битовая глубина : 16 бит
Метод сжатия : С потерями
Размер потока : 145 Мбайт (7%)
Заголовок : Русский ЛО (slavnus)
Язык : Russian
Default : Нет
Forced : Нет
Текст #1
Идентификатор : 5
Формат : VobSub
Режим смешивания : zlib
Идентификатор кодека : S_VOBSUB
Идентификатор кодека/Информация : The same subtitle format used on DVDs
Заголовок : Русский (McGre) VobSub
Язык : Russian
Default : Да
Forced : Нет
Текст #2
Идентификатор : 6
Формат : UTF-8
Идентификатор кодека : S_TEXT/UTF8
Идентификатор кодека/Информация : UTF-8 Plain Text
Заголовок : Русский (McGre) srt
Язык : Russian
Default : Нет
Forced : Нет
Меню
00:00:00.000 : :Chapter 01
00:12:31.300 : :Chapter 02
00:19:33.800 : :Chapter 03
00:22:19.567 : :Chapter 04
00:34:28.134 : :Chapter 05
00:38:27.002 : :Chapter 06
00:48:06.069 : :Chapter 07
01:05:06.569 : :Chapter 08
01:15:27.336 : :Chapter 09
01:21:41.636 : :Chapter 10
01:27:19.636 : :Chapter 11
01:39:41.203 : :Chapter 12
01:45:03.503 : :Chapter 13
01:45:26.536 : :Chapter 14

Пример субтитров

1
00:00:24,010 --> 00:00:30,000
<i>ШИРОТА НОЛЬ</i>
2
00:00:31,001 --> 00:00:34,001
<i>Перевод: McGre</i>
3
00:01:44,840 --> 00:01:47,760
Долгота 180 градусов.
[Тихий Океан]
4
00:01:48,010 --> 00:01:50,320
Широта Ноль!
5
00:01:54,660 --> 00:01:57,490
Весна 1969 года.
6
00:01:57,740 --> 00:02:00,360
Самый крупный в мире
океанографический корабль,
7
00:02:00,430 --> 00:02:02,980
японское исследовательское судно "Фуджи"
8
00:02:03,280 --> 00:02:05,725
шло на восток от островов Гилберта
9
00:02:05,760 --> 00:02:08,720
к экваториальной зоне
в южной части Тихого Океана,
10
00:02:08,930 --> 00:02:13,850
чтобы изучить нечто,
известное как "Течение Кромвеля",
11
00:02:14,410 --> 00:02:17,250
глубинный поток, текущий на восток
12
00:02:17,285 --> 00:02:19,940
от Новой Гвинеи к побережью Эквадора.
13
00:02:20,660 --> 00:02:22,145
И зачем же им его исследовать?
14
00:02:22,180 --> 00:02:26,310
Затем, что его могут использовать подводные
лодки для повышения скорости,
15
00:02:26,960 --> 00:02:30,550
точно так же, как высотные самолеты используют
скоростные воздушные потоки.
--------------------------------------
901
01:44:37,630 --> 01:44:39,650
Капитан?
902
01:44:39,810 --> 01:44:42,230
- Долгота 176.
- 176.
903
01:44:44,410 --> 01:44:47,100
- Широта..
- Широта?
904
01:44:48,100 --> 01:44:50,100
- Ноль.
- Ноль.
905
01:44:50,101 --> 01:45:00,101
<i>Перевод: McGre</i>
906
01:45:04,010 --> 01:45:09,002
<i>КОНЕЦ</i>

Скриншоты




Скринлист

cd Рип дополнительно залит на mail.ru cd2


Last edited by admin on 2015-01-14 12:26; edited 8 times in total
[Profile] [PM]

Susanin

Gender: Male

Longevity: 5 years 7 months

Posts: 825

Post 24-Nov-2014 10:22 (after 1 year 11 months)

[Quote]

Мне кажется, стоит отредактировать описание. Куройга вовсе не нимфоманка (об этом в фильме ни слова), и даже, в чём-то, несчастная женщина.
[Profile] [PM]

admin ®

Gender: Male

Longevity: 7 years 2 months

Posts: 4721

Post 14-Jan-2015 01:56 (after 1 month 19 days)

[Quote]

Добавлена озвучка от den904
[Profile] [PM]

Susanin

Gender: Male

Longevity: 5 years 7 months

Posts: 825

Post 14-Jan-2015 08:55 (after 6 hours)

[Quote]

Наконец-то можно посмотреть это безумное кино нормально. Спасибо мне! ae
[Profile] [PM]

admin ®

Gender: Male

Longevity: 7 years 2 months

Posts: 4721

Post 14-Jan-2015 12:26 (after 3 hours)

[Quote]

Спасибо вам! смайлик+
[Profile] [PM]
Quick Reply

Name:

            
Heads necessary to send messages to enable JavaScript
Display posts:    
Reply to topic

Current time is: 22-Nov 10:00

All times are UTC + 3



You cannot post new topics in this forum
You can reply to topics in this forum
You cannot edit your posts in this forum
You cannot delete your posts in this forum
You cannot vote in polls in this forum
You cannot attach files in this forum
You cannot download files in this forum