Монстры с мыса Канаверал / The Cape Canaveral Monsters (Фил Таккер / Phil Tucker) [1960 г., фантастика, DVDRip] ЛО (Трамвай-фильм)

Reply to topic
 
Author Message

admin ®

Gender: Male

Longevity: 7 years 3 months

Posts: 4813

Post 03-Dec-2012 02:40

[Quote]

Монстры с мыса Канаверал / The Cape Canaveral Monsters
Год выпуска: 1960
Страна: США, Compagnia Cinematografica Montoro (CCM)
Жанр: Фантастика
Продолжительность: 01:08:33
Перевод: Любительский (одноголосый) Трамвай-фильм
Режиссер: Фил Таккер / Phil Tucker
В ролях: Джейсон Джонсон, Кэтерин Виктор, Harriet Dichter, Чак Ховард, Билл Весс, Джо Честер, Гари Трэвис, Билли Грин, Скотт Питерс, Линда Коннелл
Описание: На землю высаживается инопланетный шпионский десант, с целью саботажа космической программы США. Пока ученые ломают голову над тем почему их ракеты падают без причин. молодой сотрудник Том Райт случайно выходит на след пришельцев
Качество: DVDRip
Формат: MKV
Видео: x264, 1610 кбит/с, 720х544, 23.976 к/с, crf=18
Аудио 1: Русский Трамвай (AC3, 2 ch, 192 Кбит/с)
Аудио 2: Английский (AС3, 2 ch, 256 Кбит/с)


С русским переводом:

Релиз

Рип с ДВД5 с CG - sasha20072007.
Перевод и озвучка - Трамвай-фильм
Подгонка русской дорожки под другую версию - sasha20072007
Сравнение с версией в сети
[/url]
Для удаления и добавления дорожек в mkv используйте бесплатную mkvmerge GUI 5.80

Дополнительно

Рецензия

MediaInfo

Общее
Уникальный идентификатор : 236115127916177488099023941312365236243 (0xB1A21E98B5942DF3B34A10D778A89013)
Полное имя : F:\Монстры с мыса Канаверал Cape Canaveral Monsters 1960.x264.DVDRip.mkv
Формат : Matroska
Версия формата : Version 4 / Version 2
Размер файла : 1,01 Гбайт
Продолжительность : 1 ч. 8 м.
Общий поток : 2100 Кбит/сек
Название фильма : Монстры с мыса Канаверал / The Cape Canaveral Monsters / 1960 / rip by sasha20072007 (2012-12-04)
Дата кодирования : UTC 2010-02-22 21:41:31
Программа кодирования : mkvmerge v5.8.0 ('No Sleep / Pillow') built on Nov 13 2012 19:43:22
Библиотека кодирования : libebml v1.3.0 + libmatroska v1.4.0
Attachment : Yes / Yes / Yes
Видео
Идентификатор : 1
Формат : AVC
Формат/Информация : Advanced Video Codec
Профиль формата : High@L4.1
Параметр CABAC формата : Да
Параметр ReFrames формата : 10 кадров
Идентификатор кодека : V_MPEG4/ISO/AVC
Битрейт : 1610 Кбит/сек
Ширина : 720 пикселей
Высота : 544 пикселя
Соотношение сторон : 4:3
Режим частоты кадров : Переменный
Частота кадров в оригинале : 23,976 кадра/сек
Цветовое пространство : YUV
Субдискретизация насыщенности : 4:2:0
Битовая глубина : 8 бит
Тип развёртки : Прогрессивная
Библиотека кодирования : x264 core 125 r2208 d9d2288
Настройки программы : cabac=1 / ref=10 / deblock=1:-1:-2 / analyse=0x3:0x133 / me=umh / subme=11 / psy=1 / psy_rd=1.00:0.15 / mixed_ref=1 / me_range=24 / chroma_me=1 / trellis=2 / 8x8dct=1 / cqm=0 / deadzone=21,11 / fast_pskip=1 / chroma_qp_offset=-3 / threads=4 / lookahead_threads=1 / sliced_threads=0 / nr=0 / decimate=1 / interlaced=0 / bluray_compat=0 / constrained_intra=0 / bframes=10 / b_pyramid=2 / b_adapt=2 / b_bias=0 / direct=1 / weightb=1 / open_gop=0 / weightp=2 / keyint=220 / keyint_min=22 / scenecut=40 / intra_refresh=0 / rc_lookahead=60 / rc=crf / mbtree=1 / crf=18.0 / qcomp=0.60 / qpmin=0 / qpmax=69 / qpstep=4 / vbv_maxrate=17500 / vbv_bufsize=14000 / crf_max=0.0 / nal_hrd=none / ip_ratio=1.40 / aq=1:0.90
Default : Да
Forced : Нет
Аудио #1
Идентификатор : 2
Формат : AC-3
Формат/Информация : Audio Coding 3
Расширение режима : CM (complete main)
Параметр Endianness формата : Big
Идентификатор кодека : A_AC3
Продолжительность : 1 ч. 8 м.
Вид битрейта : Постоянный
Битрейт : 192 Кбит/сек
Каналы : 2 канала
Расположение каналов : Front: L R
Частота : 48,0 КГц
Битовая глубина : 16 бит
Метод сжатия : С потерями
Размер потока : 94,4 Мбайт (9%)
Заголовок : Русский АО (Трамвай-фильм)
Язык : Russian
Default : Да
Forced : Да
Аудио #2
Идентификатор : 3
Формат : AC-3
Формат/Информация : Audio Coding 3
Расширение режима : CM (complete main)
Параметр Endianness формата : Big
Идентификатор кодека : A_AC3
Продолжительность : 1 ч. 8 м.
Вид битрейта : Постоянный
Битрейт : 256 Кбит/сек
Каналы : 2 канала
Расположение каналов : Front: L R
Частота : 48,0 КГц
Битовая глубина : 16 бит
Метод сжатия : С потерями
Размер потока : 126 Мбайт (12%)
Язык : English
Default : Нет
Forced : Нет
Меню
00:00:00.000 : :Chapter 01
00:10:00.033 : :Chapter 02
00:20:00.133 : :Chapter 03
00:30:00.233 : :Chapter 04
00:40:00.334 : :Chapter 05
00:50:00.434 : :Chapter 06
01:00:00.001 : :Chapter 07

Скриншоты












Скринлист

Файл дополнительно залит на ОБЛАКО


Last edited by admin on 2012-12-04 03:46; edited 2 times in total
[Profile] [PM]

admin ®

Gender: Male

Longevity: 7 years 3 months

Posts: 4813

Post 04-Dec-2012 03:32 (after 1 day)

[Quote]

Торрент перезалит с лучшим качеством видео
http://screenshotcomparison.com/comparison/161772
[Profile] [PM]
Quick Reply

Name:

            
Heads necessary to send messages to enable JavaScript
Display posts:    
Reply to topic

Current time is: 16-Dec 07:44

All times are UTC + 3



You cannot post new topics in this forum
You can reply to topics in this forum
You cannot edit your posts in this forum
You cannot delete your posts in this forum
You cannot vote in polls in this forum
You cannot attach files in this forum
You cannot download files in this forum