Путешествие к центру Земли (ТВ) / Journey to the Center of the Earth (Уильям Дир / William Dear) [1993 г., фантастика, HDTVRip-720p] АО (А.Дольский)

Reply to topic
 
Author Message

admin ®

Gender: Male

Longevity: 7 years

Posts: 4725

Location: Україна

Post 27-Nov-2012 12:53

[Quote]

Путешествие к центру Земли (ТВ) / Journey to the Center of the Earth
Год выпуска: 1993
Страна: США, Columbia Pictures Television, High Productions
Жанр: фантастика
Продолжительность: 01:31:28
Перевод: АО (А.Дольский) (c VHS)
Режиссер: Уильям Дир / William Dear
В ролях: Фэрра Форк, Ким Мийори, Джон Невилл, Джеффри Нордлинг, Тим Расс, Карел Стрёйкен, Фабиана Уденио, Жустина Вэйл, Ф. Мюррэй Абрахам
Описание: По мотивам романа Жюля Верна. Отважные путешественники через жерло действующего вулкана, а затем по запутанным подземным галереям пытаются проникнуть к самому центру Земли. Впереди их ждет много опасностей и встреча со странным и неведомым человечеству миром, населенным таинственным существами и злыми силами.
Качество: HDTVRip-720p
Формат: MKV
Видео: x264, 2550 кбит/с, 960х720, 23.976 к/с
Аудио 1: Русский АО(А.Дольский c VHS) (AC3, 2 ch, 224 Кбит/с)
Аудио 2: Английский (AC3, 2 ch, 224 Кбит/с)
Работа над релизом:
Рип найден в сети.
Русская озвучка - А.Дольский
Синхр. русской дорожки - kosmoaelita



Пример русского перевода:

Дополнительно

Also Known As (AKA)
Viagem ao Centro da Terra Brazil (imdb display title) / Portugal
Újabb utazás a Föld középpontja felé Hungary (imdb display title)
Gefährliche Reise zum Mittelpunkt der Erde Germany
Viaggio al centro della terra Italy
Viaje al corazón de la Tierra Spain
Формат изображения: 1.33 : 1
Формат копии: 35 mm
Формат съёмок: 35 mm
Изображение: цветное
Язык: английский

Рецензия

MediaInfo

Общее
Уникальный идентификатор : 180567688525973279819495770286327952420 (0x87D812639696E26A9AD9F7DFB9117424)
Полное имя : N:\BD-DISC\Journey to the Center of the Earth 1993.x264.HDTVRip.720p.Rus.kosmoaelita.mkv
Формат : Matroska
Версия формата : Version 4
Размер файла : 1,90 Гбайт
Продолжительность : 1 ч. 31 м.
Общий поток : 2974 Кбит/сек
Название фильма : Journey to the Center of the Earth / 1993 / kosmoaelita
Дата кодирования : UTC 2019-05-24 19:37:01
Программа кодирования : mkvmerge v6.6.0 ('The Edge Of The In Between') built on Dec 1 2013 17:55:00
Библиотека кодирования : libebml v1.3.0 + libmatroska v1.4.1
Attachments : POSTER-Journey-to-the-Center-of-the-Earth 1993.jpg
Видео
Идентификатор : 1
Формат : AVC
Формат/Информация : Advanced Video Codec
Профиль формата : High@L4.1
Настройки формата : CABAC / 8 Ref Frames
Параметр CABAC формата : Да
Параметр RefFrames формата : 8 кадров
Идентификатор кодека : V_MPEG4/ISO/AVC
Продолжительность : 1 ч. 31 м.
Битрейт : 2550 Кбит/сек
Ширина : 960 пикселей
Высота : 720 пикселей
Соотношение сторон : 4:3
Режим частоты кадров : Постоянный
Частота кадров : 23,976 (23976/1000) кадра/сек
Цветовое пространство : YUV
Субдискретизация насыщенности : 4:2:0
Битовая глубина : 8 бит
Тип развёртки : Прогрессивная
Бит/(Пиксели*Кадры) : 0.154
Размер потока : 1,60 Гбайт (84%)
Заголовок : http://kosmoaelita.com/viewtopic.php?t=378
Библиотека кодирования : x264 core 130 r2273 b3065e6
Настройки программы : cabac=1 / ref=8 / deblock=1:-2:-2 / analyse=0x3:0x131 / me=umh / subme=10 / psy=1 / psy_rd=0.99:0.14 / mixed_ref=1 / me_range=24 / chroma_me=1 / trellis=2 / 8x8dct=1 / cqm=0 / deadzone=21,11 / fast_pskip=1 / chroma_qp_offset=-3 / threads=6 / lookahead_threads=1 / sliced_threads=0 / nr=0 / decimate=1 / interlaced=0 / bluray_compat=0 / constrained_intra=0 / bframes=8 / b_pyramid=2 / b_adapt=2 / b_bias=0 / direct=3 / weightb=1 / open_gop=0 / weightp=2 / keyint=210 / keyint_min=21 / scenecut=40 / intra_refresh=0 / rc_lookahead=80 / rc=2pass / mbtree=1 / bitrate=2550 / ratetol=1.0 / qcomp=0.65 / qpmin=0 / qpmax=69 / qpstep=4 / cplxblur=20.0 / qblur=0.5 / ip_ratio=1.25 / aq=1:0.90
Default : Да
Forced : Нет
Цветовой диапазон : Limited
Основные цвета : BT.709
Характеристики трансфера : BT.709
Коэффициенты матрицы : BT.709
Аудио #1
Идентификатор : 2
Формат : AC-3
Формат/Информация : Audio Coding 3
Коммерческое название : Dolby Digital
Идентификатор кодека : A_AC3
Продолжительность : 1 ч. 31 м.
Вид битрейта : Постоянный
Битрейт : 192 Кбит/сек
Каналы : 2 канала
Channel layout : L R
Частота : 48,0 КГц
Частота кадров : 31,250 кадров/сек (1536 SPF)
Битовая глубина : 16 бит
Метод сжатия : С потерями
Размер потока : 126 Мбайт (6%)
Заголовок : Русский АО (А.Дольский) (с VHS)
Язык : Russian
ServiceKind/String : Complete Main
Default : Да
Forced : Нет
Аудио #2
Идентификатор : 3
Формат : AC-3
Формат/Информация : Audio Coding 3
Коммерческое название : Dolby Digital
Идентификатор кодека : A_AC3
Продолжительность : 1 ч. 31 м.
Вид битрейта : Постоянный
Битрейт : 224 Кбит/сек
Каналы : 2 канала
Channel layout : L R
Частота : 48,0 КГц
Частота кадров : 31,250 кадров/сек (1536 SPF)
Битовая глубина : 16 бит
Метод сжатия : С потерями
Размер потока : 147 Мбайт (8%)
Язык : English
ServiceKind/String : Complete Main
Default : Нет
Forced : Нет
Текст
Идентификатор : 4
Формат : UTF-8
Идентификатор кодека : S_TEXT/UTF8
Идентификатор кодека/Информация : UTF-8 Plain Text
Заголовок : Форс
Default : Да
Forced : Нет
Меню
00:00:00.000 : :Chapter 01
00:05:00.000 : :Chapter 02
00:10:00.000 : :Chapter 03
00:15:00.000 : :Chapter 04
00:20:00.000 : :Chapter 05
00:25:00.000 : :Chapter 06
00:30:00.000 : :Chapter 07
00:35:00.000 : :Chapter 08
00:40:00.000 : :Chapter 09
00:45:00.000 : :Chapter 10
00:50:00.000 : :Chapter 11
00:55:00.000 : :Chapter 12
01:00:00.000 : :Chapter 13
01:05:00.000 : :Chapter 14
01:10:00.000 : :Chapter 15
01:15:00.000 : :Chapter 16
01:20:00.000 : :Chapter 17
01:25:00.000 : :Chapter 18
01:30:00.000 : :Chapter 19

Скриншоты











Скринлист

cd Рип дополнительно залит на ОБЛАКО cd2


Last edited by admin on 2016-01-17 18:13; edited 11 times in total
[Profile] [PM]

admin ®

Gender: Male

Longevity: 7 years

Posts: 4725

Location: Україна

Post 17-Jan-2016 17:00 (after 3 years 1 month)

[Quote]

TVRip заменен на DVDRip
[Profile] [PM]

Susanin

Gender: Male

Longevity: 5 years 5 months

Posts: 824

Post 18-Jan-2016 09:42 (after 16 hours)

[Quote]

Слабое кино. Много болтовни.
[Profile] [PM]

Susanin

Gender: Male

Longevity: 5 years 5 months

Posts: 824

Post 18-Jan-2016 13:23 (after 3 hours)

[Quote]

Я, кстати, так понял по концу фильма, что подразумевалось продолжение. Видать, не срослось?
[Profile] [PM]

admin ®

Gender: Male

Longevity: 7 years

Posts: 4725

Location: Україна

Post 18-Jan-2016 13:29 (after 6 minutes)

[Quote]

Здесь обычная дешевая тв версия. Думали денег выделят на продолжение.
[Profile] [PM]

Susanin

Gender: Male

Longevity: 5 years 5 months

Posts: 824

Post 18-Jan-2016 13:31 (after 1 minute)

[Quote]

А, то есть можно это рассматривать как пилот мертворождённого сериала?
[Profile] [PM]

admin ®

Gender: Male

Longevity: 7 years

Posts: 4725

Location: Україна

Post 22-Jan-2016 04:59 (after 3 days)

[Quote]

Типа того.
[Profile] [PM]

Susanin

Gender: Male

Longevity: 5 years 5 months

Posts: 824

Post 24-May-2019 06:14 (after 3 years 4 months)

[Quote]

Journey to the Center of the Earth [1993/HDTVRIP/1080p/x264]
http://cinemageddon.net/details.php?id=221691
[Profile] [PM]

kosmoaelita2

Gender: Male

Longevity: 6 years 11 months

Posts: 743

Post 24-May-2019 22:34 (after 16 hours)

[Quote]

Замена на HDTVRIP
[Profile] [PM]
Display posts:    
Reply to topic

Current time is: 22-Sep 09:33

All times are UTC + 3



You cannot post new topics in this forum
You cannot reply to topics in this forum
You cannot edit your posts in this forum
You cannot delete your posts in this forum
You cannot vote in polls in this forum
You cannot attach files in this forum
You cannot download files in this forum