Странный мир планеты Икс / Космические монстры / The Strange World of Planet X / Cosmic Monsters (Гилберт Ганн / Gilbert Gunn) [1958 г., ужасы, фантастика, драма, DVDRip-AVC] ЛО (Трамвай-фильм)

Reply to topic
 
Author Message

admin ®

Gender: Male

Longevity: 7 years 2 months

Posts: 4721

Post 23-Nov-2012 10:08

[Quote]

Странный мир планеты Икс / Космические монстры / The Strange World of Planet X / Cosmic Monsters
Год выпуска: 1958
Страна: Великобритания
Жанр: ужасы, фантастика, драма
Продолжительность: 01:11:11
Перевод: Любительский (одноголосый) Трамвай-фильм (New и OLD)
Режиссер: Гилберт Ганн / Gilbert Gunn
В ролях: Форрест Таккер, Габи Андре, Мартин Бенсон, Алек Мэнго, Уиндэм Голди, Хью Латимер, Дэнди Николс, Ричард Уорнер, Патриция Синклер, Джеффри Чэтер
Описание: Эксперименты безумного ученого доктора Лэрда с магнетизмом приводят к тому, что он проделывает дыру в ионосфере. В результате чего космические лучи воздействуют на маленьких жучков, которые превращаются в огромных монстров
Качество: DVDRip-AVC
Формат: MKV
Видео: x264, 2119 кбит/с, 648x572@927x572, 25 к/с, crf=19
Аудио 1: Русский Трамвай-фильм NEW(AC3, 2 ch, 192 Кбит/с)
Аудио 2: Русский Трамвай-фильм OLD(AC3, 2 ch, 192 Кбит/с)
Аудио 3: Английский (AC3, 2 ch, 192 Кбит/с)
Работа над релизом:
Рип с ДВД5 - kosmoaelita
Русская озвучка и два перевода - Трамвай-фильм
Лог кодирования и постеры - в контейнере.



Пример русского перевода:

Дополнительно

слоган «Man and alien unite to combat the most insidious peril the universe has ever known!»
Also Known As (AKA)
Cosmic Monsters USA (alternative title)
O Monstro Cósmico Brazil (imdb display title)
The Cosmic Monster USA (alternative title)
The Crawling Horror (undefined)
The Crawling Terror (undefined)

Рецензия

MediaInfo

Общее
Уникальный идентификатор : 192929360186124209950611200416834374863 (0x9124D7DB85ADEEF18A81F4D2EDB3CCCF)
Полное имя : F:\The Strange World of Planet X 1958.x264.DVDRip.AVC.Rus.kosmoaelita.mkv
Формат : Matroska
Версия формата : Version 4 / Version 2
Размер файла : 1,35 Гбайт
Продолжительность : 1 ч. 11 м.
Общий поток : 2724 Кбит/сек
Название фильма : Странный мир планеты Икс / Космические монстры / The Strange World of Planet X / Cosmic Monsters / 1958 / rip by sasha20072007 (2012-11-23)
Дата кодирования : UTC 2018-07-10 23:49:17
Программа кодирования : mkvmerge v6.6.0 ('The Edge Of The In Between') built on Dec 1 2013 17:55:00
Библиотека кодирования : libebml v1.3.0 + libmatroska v1.4.1
Attachments : POSTER.jpg / the strange world of planet x_T00000000001.mkv.encoding.log
Видео
Идентификатор : 1
Формат : AVC
Формат/Информация : Advanced Video Codec
Профиль формата : High@L4.1
Параметр CABAC формата : Да
Параметр ReFrames формата : 8 кадров
Идентификатор кодека : V_MPEG4/ISO/AVC
Продолжительность : 1 ч. 11 м.
Битрейт : 2094 Кбит/сек
Ширина : 648 пикселей
Высота : 572 пикселя
Соотношение сторон : 16:10
Режим частоты кадров : Постоянный
Частота кадров : 25,000 кадров/сек
Цветовое пространство : YUV
Субдискретизация насыщенности : 4:2:0
Битовая глубина : 8 бит
Тип развёртки : Прогрессивная
Бит/(Пиксели*Кадры) : 0.226
Размер потока : 1,04 Гбайт (77%)
Заголовок : kosmoaelita
Библиотека кодирования : x264 core 125 r2208 d9d2288
Настройки программы : cabac=1 / ref=8 / deblock=1:0:-1 / analyse=0x3:0x133 / me=umh / subme=11 / psy=1 / psy_rd=0.95:0.15 / mixed_ref=1 / me_range=24 / chroma_me=1 / trellis=2 / 8x8dct=1 / cqm=0 / deadzone=21,11 / fast_pskip=1 / chroma_qp_offset=-3 / threads=4 / lookahead_threads=1 / sliced_threads=0 / nr=0 / decimate=1 / interlaced=0 / bluray_compat=0 / constrained_intra=0 / bframes=8 / b_pyramid=2 / b_adapt=2 / b_bias=0 / direct=1 / weightb=1 / open_gop=0 / weightp=2 / keyint=220 / keyint_min=22 / scenecut=40 / intra_refresh=0 / rc_lookahead=60 / rc=crf / mbtree=1 / crf=19.0 / qcomp=0.60 / qpmin=0 / qpmax=69 / qpstep=4 / vbv_maxrate=17500 / vbv_bufsize=14000 / crf_max=0.0 / nal_hrd=none / ip_ratio=1.40 / aq=1:0.80
Default : Да
Forced : Нет
Аудио #1
Идентификатор : 2
Формат : AC-3
Формат/Информация : Audio Coding 3
Расширение режима : CM (complete main)
Параметр Endianness формата : Big
Идентификатор кодека : A_AC3
Продолжительность : 1 ч. 11 м.
Вид битрейта : Постоянный
Битрейт : 192 Кбит/сек
Каналы : 2 канала
Расположение каналов : Front: L R
Частота : 48,0 КГц
Частота кадров : 31,250 кадров/сек (1536 spf)
Метод сжатия : С потерями
Размер потока : 97,8 Мбайт (7%)
Заголовок : Русский ЛО (Трамвай-фильм) NEW
Язык : Russian
Default : Да
Forced : Нет
Аудио #2
Идентификатор : 3
Формат : MPEG Audio
Версия формата : Version 1
Профиль формата : Layer 3
Режим : Joint stereo
Расширение режима : MS Stereo
Идентификатор кодека : A_MPEG/L3
Идентификатор кодека/Подсказка : MP3
Продолжительность : 1 ч. 11 м.
Вид битрейта : Постоянный
Битрейт : 128 Кбит/сек
Каналы : 2 канала
Частота : 44,1 КГц
Метод сжатия : С потерями
Задержка видео : 14 мс.
Размер потока : 65,2 Мбайт (5%)
Заголовок : Русский ЛО (Трамвай-фильм) OLD
Язык : Russian
Default : Нет
Forced : Да
Аудио #3
Идентификатор : 4
Формат : AC-3
Формат/Информация : Audio Coding 3
Расширение режима : CM (complete main)
Параметр Endianness формата : Big
Идентификатор кодека : A_AC3
Продолжительность : 1 ч. 11 м.
Вид битрейта : Постоянный
Битрейт : 256 Кбит/сек
Каналы : 2 канала
Расположение каналов : Front: L R
Частота : 48,0 КГц
Частота кадров : 31,250 кадров/сек (1536 spf)
Метод сжатия : С потерями
Размер потока : 130 Мбайт (9%)
Язык : English
Default : Нет
Forced : Нет
Меню
00:00:00.000 : :Chapter 01
00:09:38.760 : :Chapter 02
00:16:35.280 : :Chapter 03
00:27:28.920 : :Chapter 04
00:34:49.560 : :Chapter 05
00:43:20.520 : :Chapter 06
00:52:51.720 : :Chapter 07
01:02:16.800 : :Chapter 08
01:11:10.480 : :Chapter 09

Скриншоты



Скринлист

cd Рип дополнительно залит на mail.ru cd2
[Profile] [PM]

Guest

Gender: Unknown

Longevity: 49 years

Post 18-Jul-2018 03:11 (after 5 years 7 months)

[Quote]

Добавлена новая озвучка Трамвая
[Profile] [PM]

Трамвай-фильм

Gender: Male

Longevity: 5 years 3 months

Posts: 1655

Location: Россия

Post 18-Jul-2018 11:26 (after 8 hours)

[Quote]

О, спасибки. Фильм реально был сложноват, особенно с Британским произношением.
[Profile] [PM]
Quick Reply

Name:

            
Heads necessary to send messages to enable JavaScript
Display posts:    
Reply to topic

Current time is: 20-Nov 06:47

All times are UTC + 3



You cannot post new topics in this forum
You can reply to topics in this forum
You cannot edit your posts in this forum
You cannot delete your posts in this forum
You cannot vote in polls in this forum
You cannot attach files in this forum
You cannot download files in this forum