Ракета на Луну (Цветная и черно-белая версии) / Missile to the Moon (Ричард Куна / Richard E. Cunha) [1958 г., фантастика, драма, DVDRip] ЛО (kosmoaelita-RollingHead), СТ (MarfenaRus (c)

Ответить на тему
 
Автор Сообщение

admin ®

Пол: Мужской

Стаж: 5 лет 2 месяца

Сообщений: 4748

Откуда: Україна

Создавать темы 22-Ноя-2012 08:42

[Цитировать]

Ракета на Луну (Цветная и черно-белая версии) / Missile to the Moon
Релиз - kosmoaelita. com
Год выпуска: 1958
Страна: США
Жанр: фантастика, драма
Продолжительность: 01:17:09
Перевод 1: ЛО (kosmoaelita-RollingHead)
Перевод 2: Субтитры MarfenaRus (c)
Режиссер: Ричард Куна / Richard E. Cunha
В ролях: Ричард Трэвис, Кэти Даунс, Кейти Стивенс, Томми Кук, Нина Бара, Гари Кларк, Майкл Уэйлен, Лори Митчелл, Лесли Пэрриш, Генри Хантер
Описание: В результате невероятного стечения обстоятельств двоим сбежавшим из тюрьмы заключенным Гари и Лону удается спрятаться внутри космической ракеты, готовой отправиться в секретный полет на Луну. Но ночью на борт корабля поднимается ученый Дирк Грин и обнаруживает незваных гостей. Но Грин не вызывает охрану, а собирается немедленно стартовать в космос. В это же неспокойное ночное время в ракету пробираются коллега Грина по имени Стив и его невеста Джун. Немедленно ракета взлетает и отправляется в открытый космос.
Ремейк картины «Женщины-кошки с Луны» (1953)..

Качество: DVDRip
Формат: MKV
Видео: x264, 2337 кбит/с, 720x540, 23.975 к/с, 2 pass
Аудио 1: Русский RollingHead (AC3, 2 ch, 192 Кбит/с)
Аудио 2: Английский (AC3, 2 ch, 192 Кбит/с)
Аудио 3: Английский Чистый русский голос (flac)
Субтитры : Русские (MarfenaRus (c)
-----------------------------------------------------------------------------------------
Видео: x264, 2299 кбит/с, 720x540, 23.975 к/с, 2 pass
Аудио 1: Русский RollingHead (AC3, 2 ch, 192 Кбит/с)
Аудио 2: Английский (AC3, 2 ch, 192 Кбит/с)
Субтитры : Русские (MarfenaRus (c)


Субтитры

Русская озвучка

Релиз

Релиз kosmoaelita.com
Рипы с ДВД9 - sasha20072007
Русская озвучка - RollingHead
Русские субтитры - MarfenaRus (c)
Фильм был колоризован в 2007 году
Для Украины: рипы и оригинальный ДВД9 дополнительно залиты в файлохранилище
Для удаления и добавления дорожек в mkv используйте бесплатную mkvmerge GUI 5.80

Дополнительно

слоган «Adventure Into The Unknown»
бюджет $65 000
Also Known As (AKA)
Bestie des Grauens West Germany
Fusée pour la lune Belgium (French title)
Invasion de la luna Mexico
Missili sulla luna Italy
Terríveis Monstros da Lua Brazil (imdb display title)

Рецензия

MediaInfo

Общее
Уникальный идентификатор : 254817233690874796397787108897257419857 (0xBFB4039A2A2DD0AEA60935A93627F451)
Полное имя : F:\Ракета на Луну Missile to the Moon 1958\Ракета на Луну Missile to the Moon Colour 1958.x264.DVDRip.mkv
Формат : Matroska
Версия формата : Version 4 / Version 2
Размер файла : 1,54 Гбайт
Продолжительность : 1 ч. 18 м.
Режим общего битрейта : Переменный
Общий поток : 2821 Кбит/сек
Название фильма : Missile to the Moon / Ракета на Луну (цветной) / 1958 / rip by sasha20072007 (2012-11-22) Релиз www.kosmoaelita.com
Дата кодирования : UTC 2010-02-22 21:41:31
Программа кодирования : mkvmerge v5.8.0 ('No Sleep / Pillow') built on Sep 30 2012 10:57:14
Библиотека кодирования : libebml v1.3.0 + libmatroska v1.4.0
Attachment : Yes / Yes / Yes / Yes
Видео
Идентификатор : 1
Формат : AVC
Формат/Информация : Advanced Video Codec
Профиль формата : High@L4.1
Параметр CABAC формата : Да
Параметр ReFrames формата : 8 кадров
Идентификатор кодека : V_MPEG4/ISO/AVC
Продолжительность : 1 ч. 18 м.
Номинальный битрейт : 2299 Кбит/сек
Ширина : 720 пикселей
Высота : 540 пикселей
Соотношение сторон : 4:3
Режим частоты кадров : Постоянный
Частота кадров : 23,976 кадра/сек
Цветовое пространство : YUV
Субдискретизация насыщенности : 4:2:0
Битовая глубина : 8 бит
Тип развёртки : Прогрессивная
Бит/(Пиксели*Кадры) : 0.247
Библиотека кодирования : x264 core 125 r2208 d9d2288
Настройки программы : cabac=1 / ref=8 / deblock=1:0:-1 / analyse=0x3:0x133 / me=umh / subme=11 / psy=1 / psy_rd=0.95:0.15 / mixed_ref=1 / me_range=24 / chroma_me=1 / trellis=2 / 8x8dct=1 / cqm=0 / deadzone=21,11 / fast_pskip=1 / chroma_qp_offset=-3 / threads=4 / lookahead_threads=1 / sliced_threads=0 / nr=0 / decimate=1 / interlaced=0 / bluray_compat=0 / constrained_intra=0 / bframes=8 / b_pyramid=2 / b_adapt=2 / b_bias=0 / direct=3 / weightb=1 / open_gop=0 / weightp=2 / keyint=220 / keyint_min=22 / scenecut=40 / intra_refresh=0 / rc_lookahead=60 / rc=2pass / mbtree=1 / bitrate=2299 / ratetol=1.0 / qcomp=0.60 / qpmin=0 / qpmax=69 / qpstep=4 / cplxblur=20.0 / qblur=0.5 / vbv_maxrate=17500 / vbv_bufsize=14000 / nal_hrd=none / ip_ratio=1.40 / aq=1:0.80
Default : Да
Forced : Нет
Аудио #1
Идентификатор : 2
Формат : AC-3
Формат/Информация : Audio Coding 3
Расширение режима : CM (complete main)
Параметр Endianness формата : Big
Идентификатор кодека : A_AC3
Продолжительность : 1 ч. 18 м.
Вид битрейта : Постоянный
Битрейт : 192 Кбит/сек
Каналы : 2 канала
Расположение каналов : Front: L R
Частота : 48,0 КГц
Битовая глубина : 16 бит
Метод сжатия : С потерями
Размер потока : 108 Мбайт (7%)
Заголовок : Русский ЛО (kosmoaelita-RollingHead)
Язык : Russian
Default : Да
Forced : Да
Аудио #2
Идентификатор : 3
Формат : AC-3
Формат/Информация : Audio Coding 3
Расширение режима : CM (complete main)
Параметр Endianness формата : Big
Идентификатор кодека : A_AC3
Продолжительность : 1 ч. 18 м.
Вид битрейта : Постоянный
Битрейт : 192 Кбит/сек
Каналы : 2 канала
Расположение каналов : Front: L R
Частота : 48,0 КГц
Битовая глубина : 16 бит
Метод сжатия : С потерями
Размер потока : 108 Мбайт (7%)
Язык : English
Default : Нет
Forced : Нет
Аудио #3
Идентификатор : 4
Формат : FLAC
Формат/Информация : Free Lossless Audio Codec
Идентификатор кодека : A_FLAC
Продолжительность : 1 ч. 18 м.
Вид битрейта : Переменный
Каналы : 1 канал
Частота : 48,0 КГц
Битовая глубина : 16 бит
Заголовок : Русский чистый голос flac
Библиотека кодирования : libFLAC 20080709 (UTC 2008-07-09)
Default : Нет
Forced : Нет
Текст #1
Идентификатор : 5
Формат : VobSub
Идентификатор кодека : S_VOBSUB
Идентификатор кодека/Информация : The same subtitle format used on DVDs
Заголовок : Русский (MarfenaRus (c) VobSub
Язык : Russian
Default : Да
Forced : Да
Текст #2
Идентификатор : 6
Формат : UTF-8
Идентификатор кодека : S_TEXT/UTF8
Идентификатор кодека/Информация : UTF-8 Plain Text
Заголовок : Русский (MarfenaRus (c) srt
Язык : Russian
Default : Нет
Forced : Нет
-------------------------------------------------------------
Общее
Уникальный идентификатор : 178534632463016060261284215263431401457 (0x865084FC72FF48E68AE9531C37069FF1)
Полное имя : F:\Ракета на Луну Missile to the Moon 1958\Ракета на Луну Missile to the Moon B.W. 1958.x264.DVDRip.mkv
Формат : Matroska
Версия формата : Version 4 / Version 2
Размер файла : 1,48 Гбайт
Продолжительность : 1 ч. 17 м.
Общий поток : 2744 Кбит/сек
Название фильма : Missile to the Moon / Ракета на Луну ч\б / 1958 / rip by sasha20072007 (2012-11-22)
Дата кодирования : UTC 2010-02-22 21:41:31
Программа кодирования : mkvmerge v5.8.0 ('No Sleep / Pillow') built on Sep 30 2012 10:57:14
Библиотека кодирования : libebml v1.3.0 + libmatroska v1.4.0
Attachment : Yes / Yes / Yes / Yes
Видео
Идентификатор : 1
Формат : AVC
Формат/Информация : Advanced Video Codec
Профиль формата : High@L4.1
Параметр CABAC формата : Да
Параметр ReFrames формата : 8 кадров
Идентификатор кодека : V_MPEG4/ISO/AVC
Продолжительность : 1 ч. 17 м.
Битрейт : 2337 Кбит/сек
Ширина : 720 пикселей
Высота : 540 пикселей
Соотношение сторон : 4:3
Режим частоты кадров : Постоянный
Частота кадров : 23,976 кадра/сек
Цветовое пространство : YUV
Субдискретизация насыщенности : 4:2:0
Битовая глубина : 8 бит
Тип развёртки : Прогрессивная
Бит/(Пиксели*Кадры) : 0.251
Размер потока : 1,24 Гбайт (84%)
Библиотека кодирования : x264 core 125 r2208 d9d2288
Настройки программы : cabac=1 / ref=8 / deblock=1:0:-1 / analyse=0x3:0x133 / me=umh / subme=11 / psy=1 / psy_rd=0.95:0.15 / mixed_ref=1 / me_range=24 / chroma_me=1 / trellis=2 / 8x8dct=1 / cqm=0 / deadzone=21,11 / fast_pskip=1 / chroma_qp_offset=-3 / threads=4 / lookahead_threads=1 / sliced_threads=0 / nr=0 / decimate=1 / interlaced=0 / bluray_compat=0 / constrained_intra=0 / bframes=8 / b_pyramid=2 / b_adapt=2 / b_bias=0 / direct=3 / weightb=1 / open_gop=0 / weightp=2 / keyint=220 / keyint_min=22 / scenecut=40 / intra_refresh=0 / rc_lookahead=60 / rc=2pass / mbtree=1 / bitrate=2337 / ratetol=1.0 / qcomp=0.60 / qpmin=0 / qpmax=69 / qpstep=4 / cplxblur=20.0 / qblur=0.5 / vbv_maxrate=17500 / vbv_bufsize=14000 / nal_hrd=none / ip_ratio=1.40 / aq=1:0.80
Default : Да
Forced : Нет
Аудио #1
Идентификатор : 2
Формат : AC-3
Формат/Информация : Audio Coding 3
Расширение режима : CM (complete main)
Параметр Endianness формата : Big
Идентификатор кодека : A_AC3
Продолжительность : 1 ч. 17 м.
Вид битрейта : Постоянный
Битрейт : 192 Кбит/сек
Каналы : 2 канала
Расположение каналов : Front: L R
Частота : 48,0 КГц
Битовая глубина : 16 бит
Метод сжатия : С потерями
Размер потока : 106 Мбайт (7%)
Заголовок : Русский ЛО (kosmoaelita-RollingHead)
Язык : Russian
Default : Да
Forced : Да
Аудио #2
Идентификатор : 3
Формат : AC-3
Формат/Информация : Audio Coding 3
Расширение режима : CM (complete main)
Параметр Endianness формата : Big
Идентификатор кодека : A_AC3
Продолжительность : 1 ч. 17 м.
Вид битрейта : Постоянный
Битрейт : 192 Кбит/сек
Каналы : 2 канала
Расположение каналов : Front: L R
Частота : 48,0 КГц
Битовая глубина : 16 бит
Метод сжатия : С потерями
Размер потока : 106 Мбайт (7%)
Язык : English
Default : Нет
Forced : Нет
Текст #1
Идентификатор : 4
Формат : VobSub
Идентификатор кодека : S_VOBSUB
Идентификатор кодека/Информация : The same subtitle format used on DVDs
Заголовок : Русский (MarfenaRus (c) VobSub
Язык : Russian
Default : Да
Forced : Да
Текст #2
Идентификатор : 5
Формат : UTF-8
Идентификатор кодека : S_TEXT/UTF8
Идентификатор кодека/Информация : UTF-8 Plain Text
Заголовок : Русский (MarfenaRus (c) srt
Язык : Russian
Default : Нет
Forced : Нет

Пример субтитров

1
00:00:20,400 --> 00:00:25,400
<i>перевод MarfenaRus (c) апрель 2011</i>
2
00:00:30,099 --> 00:00:34,466
"РАКЕТА НА ЛУНУ "
(Missile to the Moon, 1958)
3
00:02:18,540 --> 00:02:20,804
Офицер Крамер,...
вызываю базу...
4
00:02:21,609 --> 00:02:23,576
База - ответьте...
5
00:02:23,611 --> 00:02:26,978
<i>База слушает,...
Крамер, как успехи?</i>
6
00:02:27,048 --> 00:02:30,176
я на востоке, в миле от поворота.
Здесь нет никаких следов Дональдсонов.
7
00:02:30,251 --> 00:02:33,353
<i>- Есть какие-то вести от Дональдсонах?
- Нет ничего</i>
8
00:02:33,388 --> 00:02:37,347
<i>Но они уже давно должны были
оказаться в квадрате 89-12.</i>
9
00:02:37,659 --> 00:02:41,595
<i>- Ты единственный, кто может их найти.
- Я постараюсь поймать их.</i>
10
00:02:41,663 --> 00:02:45,099
я выйду на связь около полуночи.
11
00:02:45,199 --> 00:02:49,192
Сначала я отправлюсь к мистеру Дэйтону
и поищу их там.
12
00:02:53,374 --> 00:02:57,143
Без сомнения, Ваш проект гораздо
более учадлив,...
13
00:02:57,178 --> 00:03:00,897
чем всё то, чего удалось добиться
всем нашим военным учёным.
14
00:03:00,932 --> 00:03:04,617
А использование солнечной энергии -
это вообще отличная идея.
15
00:03:04,986 --> 00:03:06,510
Но всё это надо ещё проверить.
16
00:03:06,988 --> 00:03:08,956
Как и все ваши другие инновации.
17
00:03:09,958 --> 00:03:12,290
Но все мои проекты
успешно функционируют.
18
00:03:12,427 --> 00:03:14,462
За пределами этого помещения
стоит уже готовая ракета,...
19
00:03:14,497 --> 00:03:16,497
которая уже сейчас в состоянии
поднять людей в космос.
20
00:03:16,532 --> 00:03:18,988
Это уже было проверено
несколько раз.
21
00:03:19,067 --> 00:03:20,125
Полковник, это верно.


Последний раз редактировалось: admin (2012-12-02 22:13), всего редактировалось 1 раз
[Профиль] [ЛС]

admin ®

Пол: Мужской

Стаж: 5 лет 2 месяца

Сообщений: 4748

Откуда: Україна

Создавать темы 02-Дек-2012 22:00 (спустя 10 дней)

[Цитировать]

Торрент перезалит - добавлена русская озвучка
[Профиль] [ЛС]

Гость

Пол: Не указан

Создавать темы 10-Авг-2013 15:58 (спустя 8 месяцев 7 дней)

[Цитировать]

на ютубе дольше идет
 
Быстрый ответ

Имя:

            
Для отправки сообщений необходимо включить JavaScript
Показать сообщения:    
Ответить на тему

Текущее время: 24-Ноя 09:05

Часовой пояс: UTC + 3:30



Вы не можете начинать темы
Вы можете отвечать на сообщения
Вы не можете редактировать свои сообщения
Вы не можете удалять свои сообщения
Вы не можете голосовать в опросах
Вы не можете прикреплять файлы к сообщениям
Вы не можете скачивать файлы