Тото на Луне / Totò nella luna / Toto nella Luna (Стено / Steno) [1958 г., фантастика, комедия,, DVDRip-AVC] ЛО (lehachuev), СТ (Consigliere)

Reply to topic
 
Author Message

admin ®

Gender: Male

Longevity: 7 years

Posts: 4725

Location: Україна

Post 18-Nov-2012 17:45

[Quote]

Тото на Луне / Totò nella luna / Toto nella Luna
Год выпуска: 1958
Страна: Италия
Жанр: фантастика, комедия,
Продолжительность: 01:34:03
Перевод: Любительский (одноголосый) lehachuev
Режиссер: Стено / Steno
В ролях: Тото, Сильва Кошина, Уго Тоньяцци, Лучана Сальче, Ричард МакНамара, Джим Долен, Агостино Сальвьетти, Джакомо Фурия, Ренато Тонтини, Анна ди Джулио, Марко Тулли, Франческо Муле, Сальво Либасси, Иньяцио Леоне, Ламберто Антинор, Сандра Мило
Описание: Владелец популярного журнала "Субретка" - Паскуале Беллафронте (Тото) - довольно своебразный человек, самодур и управленец. Поэтому он совсем не замечает, что его дочь Лидия влюбилась в курьера Акилле Паолони. Но Акилле довольно непрост. Он пишет фантастические романы, и, к тому же, как случайно выясняется, в его крови содержится глюмоний, что означает, что он может лететь в космос! И никому неведомо, что одновременно за попытками землям вырваться в межпланетное пространство смотрят внимательные глаза неких инопланетных существ, стоящих на гораздо более высокой ступени развития, умеющих делать клонов человеческих существ... Довольно любопытная комедия. А Тото? Неужели он действительно побывает на Луне? Смотрите фильм, и узнаете!
Эта картина из разряда фильмов, которые были выпущены многими кинокомпаниями мира после того, как в СССР был произведен запуск первого в мире искусственного спутника Земли

Качество: DVDRip-AVC
Формат: MKV
Видео: x264, 2095 кбит/с, 688x568@981x568, 25 к/с, crf=21
Аудио 1: Русский lehachuev (AC3, 2 ch, 192 Кбит/с)
Аудио 2: Итальянский (AC3, 6 ch, 384 Кбит/с)
Субтитры : Итальянские, русские (Consigliere)


Релиз

Рип с итальянского ДВД5 - sasha20072007
Перевод и субтитры: Consigliere
Озвучивание: lehachuev
Синхронизация: kofka и alex7691
Сравнение с исходником ДВД5
Для Украины: рип и оригинальный ДВД дополнительно залиты в файлохранилище
Для удаления и добавления дорожек в mkv используйте бесплатную mkvmerge GUI 5.80

Дополнительно

Also Known As (AKA)
Totò in the Moon (undefined)
Totó na Lua Portugal (imdb display title

Рецензия

MediaInfo

Общее
Уникальный идентификатор : 192341783842182773445866047654525980566 (0x90B3AE1B6AC6C9969050D7934E88CF96)
Полное имя : F:\Тото на Луне Toto nella Luna 1958.x264.DVDRip.AVC.sasha20072007.mkv
Формат : Matroska
Версия формата : Version 4 / Version 2
Размер файла : 1,79 Гбайт
Продолжительность : 1 ч. 34 м.
Общий поток : 2725 Кбит/сек
Название фильма : Тото на Луне / Toto nella Luna / 1958 / rip by sasha20072007 (2012-11-18)
Дата кодирования : UTC 2010-02-22 21:41:31
Программа кодирования : mkvmerge v5.8.0 ('No Sleep / Pillow') built on Sep 30 2012 10:57:14
Библиотека кодирования : libebml v1.3.0 + libmatroska v1.4.0
Attachment : Yes / Yes
Видео
Идентификатор : 1
Формат : AVC
Формат/Информация : Advanced Video Codec
Профиль формата : High@L4.1
Параметр CABAC формата : Да
Параметр ReFrames формата : 8 кадров
Идентификатор кодека : V_MPEG4/ISO/AVC
Продолжительность : 1 ч. 34 м.
Битрейт : 2095 Кбит/сек
Ширина : 688 пикселей
Высота : 568 пикселей
Соотношение сторон : 1,727
Соотношение сторон в оригинале : 1,728
Режим частоты кадров : Постоянный
Частота кадров : 25,000 кадров/сек
Цветовое пространство : YUV
Субдискретизация насыщенности : 4:2:0
Битовая глубина : 8 бит
Тип развёртки : Прогрессивная
Бит/(Пиксели*Кадры) : 0.214
Размер потока : 1,38 Гбайт (77%)
Библиотека кодирования : x264 core 125 r2208 d9d2288
Настройки программы : cabac=1 / ref=8 / deblock=1:-2:-1 / analyse=0x3:0x133 / me=umh / subme=11 / psy=1 / psy_rd=0.95:0.15 / mixed_ref=1 / me_range=24 / chroma_me=1 / trellis=2 / 8x8dct=1 / cqm=0 / deadzone=21,11 / fast_pskip=1 / chroma_qp_offset=-3 / threads=4 / lookahead_threads=1 / sliced_threads=0 / nr=0 / decimate=1 / interlaced=0 / bluray_compat=0 / constrained_intra=0 / bframes=8 / b_pyramid=2 / b_adapt=2 / b_bias=0 / direct=1 / weightb=1 / open_gop=0 / weightp=2 / keyint=220 / keyint_min=22 / scenecut=40 / intra_refresh=0 / rc_lookahead=60 / rc=crf / mbtree=1 / crf=21.0 / qcomp=0.60 / qpmin=0 / qpmax=69 / qpstep=4 / vbv_maxrate=17500 / vbv_bufsize=14000 / crf_max=0.0 / nal_hrd=none / ip_ratio=1.40 / aq=1:0.80
Default : Да
Forced : Нет
Аудио #1
Идентификатор : 2
Формат : AC-3
Формат/Информация : Audio Coding 3
Расширение режима : CM (complete main)
Параметр Endianness формата : Big
Идентификатор кодека : A_AC3
Продолжительность : 1 ч. 34 м.
Вид битрейта : Постоянный
Битрейт : 192 Кбит/сек
Каналы : 2 канала
Расположение каналов : Front: L R
Частота : 48,0 КГц
Битовая глубина : 16 бит
Метод сжатия : С потерями
Размер потока : 129 Мбайт (7%)
Заголовок : Русский (lehachuev)
Язык : Russian
Default : Да
Forced : Нет
Аудио #2
Идентификатор : 3
Формат : AC-3
Формат/Информация : Audio Coding 3
Расширение режима : CM (complete main)
Параметр Endianness формата : Big
Идентификатор кодека : A_AC3
Продолжительность : 1 ч. 34 м.
Вид битрейта : Постоянный
Битрейт : 384 Кбит/сек
Каналы : 6 каналов
Расположение каналов : Front: L C R, Side: L R, LFE
Частота : 48,0 КГц
Битовая глубина : 16 бит
Метод сжатия : С потерями
Размер потока : 258 Мбайт (14%)
Заголовок : Italian 5.1 384
Язык : Italian
Default : Нет
Forced : Нет
Текст
Идентификатор : 4
Формат : VobSub
Режим смешивания : zlib
Идентификатор кодека : S_VOBSUB
Идентификатор кодека/Информация : The same subtitle format used on DVDs
Язык : Italian
Default : Да
Forced : Нет
Меню
00:00:00.000 : :Chapter 01
00:03:30.960 : :Chapter 02
00:06:55.320 : :Chapter 03
00:14:08.160 : :Chapter 04
00:19:37.560 : :Chapter 05
00:22:12.000 : :Chapter 06
00:36:39.600 : :Chapter 07
00:39:13.560 : :Chapter 08
00:47:21.000 : :Chapter 09
00:58:45.600 : :Chapter 10
01:04:36.360 : :Chapter 11
01:13:07.560 : :Chapter 12
01:18:22.920 : :Chapter 13
01:22:42.240 : :Chapter 14
01:27:25.320 : :Chapter 15
01:31:08.400 : :Chapter 16
[Profile] [PM]
Quick Reply

Name:

            
Heads necessary to send messages to enable JavaScript
Display posts:    
Reply to topic

Current time is: 21-Sep 01:31

All times are UTC + 3



You cannot post new topics in this forum
You can reply to topics in this forum
You cannot edit your posts in this forum
You cannot delete your posts in this forum
You cannot vote in polls in this forum
You cannot attach files in this forum
You cannot download files in this forum