Космический принц / Принц космоса / Prince of Space / Yûsei ôji (Эйхиро Вакабаяши / Eijirô Wakabayashi) [1959 г., фантастика, боевик, DVDRip-AVC] ЛО (Трамвай-фильм)

Reply to topic
 
Author Message

admin ®

Gender: Male

Longevity: 7 years 3 months

Posts: 4811

Post 12-Nov-2012 20:06

[Quote]

Космический принц / Принц космоса / Prince of Space / Yûsei ôji
Год выпуска: 1959
Страна: Япония
Жанр: фантастика, боевик
Продолжительность: 01:25:11
Перевод: Любительский (одноголосый) (Трамвай-фильм)
Режиссер: Эйхиро Вакабаяши / Eijirô Wakabayashi
В ролях: Татсуо Умемия, Ushio Skashi, Дзёздзи Ока, Хироко Минэ, Такаши Канда, Джек Кертис, Ken Sudoh, Nobu Yatsuna, Walker Churchman
Описание: На Землю летит Призрак — диктатор планеты Крайнкор, чтобы украсть формулу секретного ракетного топлива, с помощью которого он завоюет весь мир. Но на пути его встает супер-герой в маске, неуязвимый и благородный Принц Космоса!Представлена короткая 85 мин (полная - 121 мин) версия для американского проката
Качество: DVDRip-AVC
Формат: MKV
Видео: x264, 1573 кбит/с, 720x480@853x480, 23/976 к/с, crf=20
Аудио 1: Русский Трамвай-фильм (AC3, 2 ch, 192 Кбит/с)
Аудио 2: Английский (AC3, 2 ch, 192 Кбит/с)
Субтитры : Английские


Трейлер

Фильм на русском

Релиз

Озвучка - Трамвай-фильм
Сравнение: kosmoaelita.com vs. rutracker

Дополнительно

Also Known As (AKA)
Invaders from the Spaceship USA (alternative title)
Prince of Space USA
The Star Prince USA

MediaInfo

Общее
Уникальный идентификатор : 229472286693988697117974599141791702904 (0xACA2C13CDF758D6786A5120503391F78)
Полное имя : F:\Космический принц Prince of Space 1959.x264.mkv
Формат : Matroska
Версия формата : Version 4 / Version 2
Размер файла : 1,19 Гбайт
Продолжительность : 1 ч. 25 м.
Общий поток : 1997 Кбит/сек
Название фильма : Prince.of.Space.(Yusei.oji).1959.x264 / Принц космоса
Дата кодирования : UTC 2010-02-22 21:41:31
Программа кодирования : mkvmerge v5.8.0 ('No Sleep / Pillow') built on Sep 30 2012 10:57:14
Библиотека кодирования : libebml v1.3.0 + libmatroska v1.4.0
Attachment : Yes
Видео
Идентификатор : 1
Формат : AVC
Формат/Информация : Advanced Video Codec
Профиль формата : High@L3.0
Параметр CABAC формата : Да
Параметр ReFrames формата : 5 кадров
Идентификатор кодека : V_MPEG4/ISO/AVC
Продолжительность : 1 ч. 25 м.
Битрейт : 1573 Кбит/сек
Ширина : 720 пикселей
Высота : 480 пикселей
Соотношение сторон : 16:9
Режим частоты кадров : Постоянный
Частота кадров : 23,976 кадра/сек
Стандарт вещания : NTSC
Цветовое пространство : YUV
Субдискретизация насыщенности : 4:2:0
Битовая глубина : 8 бит
Тип развёртки : Прогрессивная
Бит/(Пиксели*Кадры) : 0.190
Размер потока : 959 Мбайт (79%)
Заголовок : Video
Библиотека кодирования : x264 core 125 r2200 999b753
Настройки программы : cabac=1 / ref=5 / deblock=1:-1:-1 / analyse=0x3:0x133 / me=umh / subme=8 / psy=1 / psy_rd=1.00:0.15 / mixed_ref=1 / me_range=16 / chroma_me=1 / trellis=0 / 8x8dct=1 / cqm=0 / deadzone=21,11 / fast_pskip=1 / chroma_qp_offset=-2 / threads=6 / lookahead_threads=1 / sliced_threads=0 / nr=0 / decimate=1 / interlaced=0 / bluray_compat=0 / constrained_intra=0 / bframes=3 / b_pyramid=2 / b_adapt=2 / b_bias=0 / direct=3 / weightb=1 / open_gop=0 / weightp=2 / keyint=240 / keyint_min=23 / scenecut=40 / intra_refresh=0 / rc=crf / mbtree=0 / crf=20.0 / qcomp=0.60 / qpmin=3 / qpmax=69 / qpstep=4 / ip_ratio=1.40 / pb_ratio=1.30 / aq=1:1.00
Default : Да
Forced : Нет
Аудио #1
Идентификатор : 2
Формат : AC-3
Формат/Информация : Audio Coding 3
Расширение режима : CM (complete main)
Параметр Endianness формата : Big
Идентификатор кодека : A_AC3
Продолжительность : 1 ч. 25 м.
Вид битрейта : Постоянный
Битрейт : 192 Кбит/сек
Каналы : 2 канала
Расположение каналов : Front: L R
Частота : 48,0 КГц
Битовая глубина : 16 бит
Метод сжатия : С потерями
Размер потока : 117 Мбайт (10%)
Заголовок : Русский ЛО (Трамвай-фильм)
Язык : Russian
Default : Да
Forced : Нет
Аудио #2
Идентификатор : 3
Формат : AC-3
Формат/Информация : Audio Coding 3
Расширение режима : CM (complete main)
Параметр Endianness формата : Big
Идентификатор кодека : A_AC3
Продолжительность : 1 ч. 25 м.
Вид битрейта : Постоянный
Битрейт : 192 Кбит/сек
Каналы : 2 канала
Расположение каналов : Front: L R
Частота : 48,0 КГц
Битовая глубина : 16 бит
Метод сжатия : С потерями
Размер потока : 117 Мбайт (10%)
Заголовок : English Dub
Язык : English
Default : Нет
Forced : Нет
Текст #1
Идентификатор : 4
Формат : VobSub
Идентификатор кодека : S_VOBSUB
Идентификатор кодека/Информация : The same subtitle format used on DVDs
Заголовок : VobSub
Язык : English
Default : Нет
Forced : Нет
Текст #2
Идентификатор : 5
Формат : UTF-8
Идентификатор кодека : S_TEXT/UTF8
Идентификатор кодека/Информация : UTF-8 Plain Text
Заголовок : srt
Язык : English
Default : Нет
Forced : Нет
Меню
00:00:00.000 : en:Chapter 1
00:04:53.267 : en:Chapter 2
00:09:16.000 : en:Chapter 3
00:16:38.367 : en:Chapter 4
00:26:03.133 : en:Chapter 5
00:30:23.400 : en:Chapter 6
00:38:54.767 : en:Chapter 7
00:42:40.733 : en:Chapter 8
00:46:20.833 : en:Chapter 9
00:55:13.667 : en:Chapter 10
01:02:51.567 : en:Chapter 11
01:08:18.700 : en:Chapter 12
01:25:04.033 : en:Chapter 13

Скриншоты




Скринлист

Файл дополнительно залит на ОБЛАКО
[Profile] [PM]

Faer

Gender: Male

Longevity: 4 years 11 months

Posts: 349

Location: Сербия

Post 10-Mar-2015 01:49 (after 2 years 3 months)

[Quote]

Я (надеюсь) нашел оригинальный сериал, из которого был сделан фильм. С музыкальной заставкой перед серией, молодым японским доном и адидасным супергероем. Завтра выложу. Видимо, рип с этого.
ссылка на сериал (?)
[Profile] [PM]

Трамвай-фильм

Gender: Male

Longevity: 5 years 4 months

Posts: 1693

Location: Россия

Post 10-Mar-2015 17:48 (after 15 hours)

[Quote]

американцы урезали, вроде.
[Profile] [PM]
Quick Reply

Name:

            
Heads necessary to send messages to enable JavaScript
Display posts:    
Reply to topic

Current time is: 07-Dec 07:16

All times are UTC + 3



You cannot post new topics in this forum
You can reply to topics in this forum
You cannot edit your posts in this forum
You cannot delete your posts in this forum
You cannot vote in polls in this forum
You cannot attach files in this forum
You cannot download files in this forum