Убийство в космосе / Murder in Space (Стивен Хиллиард Штерн) [1985 г., Фантастика, Детектив, Триллер, VHSRip] ЛО (ID-Daemon)

Reply to topic
DL-List and Torrent activity
Size:  1008 MB   |    Registered:  6 years 10 months   |    Completed:  18 times

Seeder not seen: 8 months 19 days

 
   
 
 
 
Author Message

Guest ®

Gender: Unknown

Post 10-Nov-2012 12:01

[Quote]

Убийство в космосе / Murder in Space
Год выпуска: 1985
Страна: США, Канада
Жанр: Фантастика, Детектив, Триллер
Продолжительность: 01:31:46
Перевод: Любительский (одноголосый) (ID-Daemon)
Режиссер: Стивен Хиллиард Штерн
В ролях: Уилфорд Бримли, Майкл Айронсайд, Мартин Болсам, Дамир Андрей, Том Батлер, Венди Крюсон, Скот Дентон, Питер Дворски, Алан Джордан
Описание: В недалеком будущем экипаж интернационального космического корабля отправляется в обратный полет с Марса на Землю. Все ожидают их триумфального возвращения, как вдруг кто-то начинает убивать членов экипажа.Сетевой торрентКачество: VHSRip
Формат: AVI
Видео кодек: XviD
Аудио кодек: MP3
Видео: 636x476 (1.34:1), 29.970 fps, ~1197 kbps avg, 0.13 bit/pixel
Аудио 1: 48 kHz, 2 ch, 192.00 kbps
Аудио 2: 48 kHz, 2 ch, 128.00 kbps
Работа над релизом:




Пример русского перевода:

Дополнительно

Also Known As (AKA) Spain Asesinato en el espacio
France Meurtre dans l'espace
Greece (video title) O dolofonos tou diastimatos
Poland Morderstwo w kosmosie
Sweden Mord i rymden

Знаете ли вы, что...

Фильм был показан по кабельному ТВ первоначально без концовки (до отсчета 1:18:30), где становится ясно, кто убийца (или убийцы). Зрителям, которые угадают, кто это, были обещаны денежные призы. Но не сомневайтесь, создатели фильма позаботились о том, чтобы угадать это было практически невозможно.

Отзывы

Фильм был показан по кабельному ТВ первоначально без концовки (до отсчета 1:18:30), где становится ясно, кто убийца (или убийцы). Зрителям, которые угадают, кто это, были обещаны денежные призы
только ради этого стоит качать
всё-таки посмотрел этот фильм и очень приятно удивлён - блестящий триллер, всё в лучших традициях классического детектива от Агаты Кристи. Сам, невольно представлял себя в роли знатока-сыщика, но всё же не дошел до истины. Не зря же авторы подобного конкурса, да и как сценаристы в целом, затеяли подобную "гонку за призами". И тем не менее, Я не успокоился даже после просмотра фильма, пытаясь узнать чем же закончилась эта история с поиском истинного убийцы. В итоге, один из пользователей интернета поведал информацию, что прекрасно помнит этот фильм и до сих пор не забыл эту историю: канал Showtime (который собственно и затеял этот марафон) был несколько ошеломлён из-за того, что одна жещина всё же догадалась в причине все этих убийств и назвала
---------------------------------------
В итоге, один из пользователей интернета поведал информацию, что прекрасно помнит этот фильм и до сих пор не забыл эту историю: канал Showtime (который собственно и затеял этот марафон) был несколько ошеломлён из-за того, что одна жещина всё же догадалась в причине все этих убийств
-----------------------------------

Рецензия

MediaInfo

General
Complete name : F:\Murder in Space.1985.rus.eng.avi.!ut
Format : AVI
Format/Info : Audio Video Interleave
File size : 1 008 MiB
Duration : 1h 31mn
Overall bit rate : 1 536 Kbps
Writing application : VirtualDubMod 1.5.10.2 (build 2540/release)
Writing library : VirtualDubMod build 2540/release
Video
ID : 0
Format : MPEG-4 Visual
Codec ID : XVID
Codec ID/Hint : XviD
Duration : 1h 31mn
Source duration : 55mn 19s
Bit rate : 9 848 Kbps
Width : 636 pixels
Height : 476 pixels
Display aspect ratio : 3:2
Frame rate : 29.970 fps
Color space : YUV
Chroma subsampling : 4:2:0
Compression mode : Lossy
Bits/(Pixel*Frame) : 1.085
Stream size : 3.81 GiB
Audio #1
ID : 1
Format : MPEG Audio
Format version : Version 1
Format profile : Layer 3
Mode : Joint stereo
Mode extension : Intensity Stereo
Codec ID : 55
Codec ID/Hint : MP3
Duration : 1h 31mn
Source duration : 86h 39mn
Bit rate mode : Constant
Bit rate : 192 Kbps
Channel(s) : 2 channels
Sampling rate : 48.0 KHz
Compression mode : Lossy
Stream size : 6.97 GiB
Alignment : Split accross interleaves
Interleave, duration : 33 ms (1.00 video frame)
Interleave, preload duration : 500 ms
Audio #2
ID : 2
Format : MPEG Audio
Codec ID : 55
Codec ID/Hint : MP3
Duration : 1h 31mn
Source duration : 150h 15mn
Bit rate : 128 Kbps
Channel(s) : 2 channels
Sampling rate : 48.0 KHz
Compression mode : Lossy
Stream size : 8.06 GiB
Alignment : Aligned on interleaves
Interleave, duration : 33 ms (1.00 video frame)
Interleave, preload duration : 500 ms

Скриншоты







Скринлист

cd Рип дополнительно залит на ОБЛАКО cd2
[rutracker.org].t4105200.torrent
Torrent: Registered [ 2012-11-10 12:01 ]

Download .torrent

Download

20 KB

Status: checked
Completed: 18 times
Size: 1008 MB
 
 

Guest ®

Gender: Unknown

Post 14-Jun-2013 19:34 (after 7 months 4 days)

[Quote]

тут может лучше качество
http://www.board.bloodsuckerz.net/dvdr/41900-moerde...hs2dvd-dvd5.html
 
Display posts:    
Reply to topic

Current time is: 22-Sep 08:56

All times are UTC + 3



You cannot post new topics in this forum
You cannot reply to topics in this forum
You cannot edit your posts in this forum
You cannot delete your posts in this forum
You cannot vote in polls in this forum
You cannot attach files in this forum
You can download files in this forum