Гости из галактики / Gosti iz galaksije / Monstrum z galaxie Arkana (Душан Вукотич) [1981 г., фантастика, комедия, DVDRip] ЛО (slavnus), СТ (disluo)

Reply to topic
DL-List and Torrent activity
Size:  1.48 GB   |    Registered:  5 years 3 months   |    Completed:  7 times

Seeder not seen: 3 months 21 day

 
   
 
 
 
Author Message

Guest ®

Gender: Unknown

Post 10-Nov-2012 11:14

[Quote]

Гости из галактики / Gosti iz galaksije / Monstrum z galaxie Arkana
Год выпуска: 1981
Страна: Чехословакия, Югославия, Filmové Studio Barrandov, Загребфильм
Жанр: фантастика, комедия
Продолжительность: 01:25:11
Перевод: Любительский (одноголосый) slavnus по субтитрам от disluo
Режиссер: Душан Вукотич
В ролях:
Zarko Potocnjak ... Robert
Lucie Zulová ... Biba
Ksenia Prohaska ... Andra
Jasminka Alic ... Ulu
Rene Bitorajac ... Targo
Ljubisa Samardzic ... Toni
Ivana Andrlová ... Gabi
Cvijeta Mesic ... Cecilie
Markéta Fiserová ... Stela
Karel Augusta ... Stela's father
Hermina Pipinic ... Stela's mother
Helena Ruzicková ... Mrs. Svarcová
Václav Stekl ... Psychiatrist
Petr Drozda ... Mumu
Zvonko Lepetic ... Guardian
Описание: Фильм рассказывает историю о человеке, который сочиняет великолепные истории о жизни в далекой галактике, не подозревая, что они могут материализоваться в не совсем хорошем свете.
Качество: DVDRip
Формат: MKV
Видео: xvid, 2040 кбит/с, 720x544, 25 к/с
Аудио 1: Русский ЛО (slavnus) (AC3, 2 ch, 192 Кбит/с)
Аудио 2: Сербско-хорватский (MP3, 2 ch, 192 Кбит/с)
Субтитры : Русские (disluo)
Работа над релизом:
Рип найден на KG
Перевод по англ. субтитрам - disluo
Тайминг и правка - sasha20072007 (kosmoaelita)
Озвучка по субтитрам - slavnus. При озвучке часть текста пропущена



Пример русских озвучки и субтитров

Дополнительно

Also Known As (AKA)
(original title) Gosti iz galaksije
Posjetioci iz galaksije Arkana
Czechoslovakia (Czech title) (dubbed version) Monstrum z galaxie Arkana
East Germany Gäste aus der Galaxis
Spain Los visitantes de la galaxia
Italy I visitatori della galassia arcana
Poland Goscie z galaktyki Arkana
USA (alternative title) Visitors from the Galaxy
West Germany Besuch aus der Galaxis
World-wide (English title) Visitors from the Arkana Galaxy
================================================
Для Украины: рип и оригинальный ДВД дополнительно залиты в файлохранилище
Для удаления,добавления и извлечения дорожек в mkv используйте бесплатную портативную mkvmerge GUI 6.6.0
Для присоединения потом дорожек к avi воспользуйтесь VirtualDubMod

Отзывы

Спасибо за редкий фильм и за субтитры к нему.
Он шел в Москве в 1982 году на недели фильмов Югославии. Я смотрела его в кинотеатре "Форум", где он шёл два дня вподряд. Фильм тогда очень понравился, после просмотра я сразу купила билет на слудующий день
В инете попадался VHS-rip без перевода и в очень плохом качестве, почти без цвета.
Приятно было вспомнить былое.
-----------------------------------------------------
Фильм , конечно сделан в стиле Кустурицы, однако есть даже и очень жуткие сцены .
Постановщик спецэффектов сам чешский гений Ян Шванкмайер.
---------------------------------------------------

MediaInfo

Общее
Уникальный идентификатор : 173772665245650820579262585774537879237 (0x82BB65E02235AB4B9570D59CA812AEC5)
Полное имя : N:\Gosti iz galaksije 1981.XviD.DVDRip.Rus.kosmoaelita.mkv
Формат : Matroska
Версия формата : Version 4 / Version 2
Размер файла : 1,48 Гбайт
Продолжительность : 1 ч. 25 м.
Общий поток : 2473 Кбит/сек
Название фильма : Gosti iz galaksije 1981 kosmoaelita
Дата кодирования : UTC 2014-06-01 17:17:17
Программа кодирования : mkvmerge v6.6.0 ('The Edge Of The In Between') built on Dec 7 2013 13:21:48
Библиотека кодирования : libebml v1.3.0 + libmatroska v1.4.1
Видео
Идентификатор : 1
Формат : MPEG-4 Visual
Профиль формата : Advanced Simple@L5
Параметр BVOP формата : Да
Параметр QPel формата : Да
Параметр GMC формата : Без точки перехода
Параметр матрицы формата : Default (MPEG)
Идентификатор кодека : V_MS/VFW/FOURCC / XVID
Идентификатор кодека/Подсказка : XviD
Продолжительность : 1 ч. 25 м.
Битрейт : 2040 Кбит/сек
Ширина : 720 пикселей
Высота : 544 пикселя
Соотношение сторон : 4:3
Режим частоты кадров : Постоянный
Частота кадров : 25,000 кадров/сек
Цветовое пространство : YUV
Субдискретизация насыщенности : 4:2:0
Битовая глубина : 8 бит
Тип развёртки : Прогрессивная
Метод сжатия : С потерями
Бит/(Пиксели*Кадры) : 0.208
Размер потока : 1,22 Гбайт (82%)
Библиотека кодирования : XviD 1.2.1 (UTC 2008-12-04)
Default : Да
Forced : Нет
Аудио #1
Идентификатор : 2
Формат : AC-3
Формат/Информация : Audio Coding 3
Расширение режима : CM (complete main)
Параметр Endianness формата : Big
Идентификатор кодека : A_AC3
Продолжительность : 1 ч. 25 м.
Вид битрейта : Постоянный
Битрейт : 192 Кбит/сек
Каналы : 2 канала
Расположение каналов : Front: L R
Частота : 48,0 КГц
Битовая глубина : 16 бит
Метод сжатия : С потерями
Размер потока : 117 Мбайт (8%)
Заголовок : Русский ЛО (slavnus)
Язык : Russian
Default : Да
Forced : Нет
Аудио #2
Идентификатор : 3
Формат : MPEG Audio
Версия формата : Version 1
Профиль формата : Layer 3
Режим : Joint stereo
Расширение режима : MS Stereo
Идентификатор кодека : A_MPEG/L3
Идентификатор кодека/Подсказка : MP3
Продолжительность : 1 ч. 25 м.
Вид битрейта : Постоянный
Битрейт : 192 Кбит/сек
Каналы : 2 канала
Частота : 48,0 КГц
Метод сжатия : С потерями
Размер потока : 117 Мбайт (8%)
Библиотека кодирования : LAME3.99r
Настройки программы : -m j -V 4 -q 2 -lowpass 18.6 -b 192
Язык : Croatian
Default : Нет
Forced : Нет
Текст #1
Идентификатор : 4
Формат : VobSub
Режим смешивания : zlib
Идентификатор кодека : S_VOBSUB
Идентификатор кодека/Информация : The same subtitle format used on DVDs
Заголовок : Русский (disluo)
Язык : Russian
Default : Да
Forced : Нет
Текст #2
Идентификатор : 5
Формат : UTF-8
Идентификатор кодека : S_TEXT/UTF8
Идентификатор кодека/Информация : UTF-8 Plain Text
Заголовок : Русский (disluo) ыке
Язык : Russian
Default : Нет
Forced : Нет

Пример субтитров

1
00:00:56,610 --> 00:01:00,950
Режиссер
Душан Вукотич
2
00:01:05,350 --> 00:01:09,250
"Гости из Галактики"
(Gosti iz galaksije)
(Monstrum z galaxie Arkana, 1981г)
3
00:01:11,250 --> 00:01:15,350
Сценарий:
Милош Мацоурек
Душан Вукотич
4
00:01:24,550 --> 00:01:32,450
В ролях:
Любиша Самарджич
Zarko Potocnjak и др.
5
00:02:24,180 --> 00:02:28,050
Одна из немногих обитаемых планет
холодной и негостеприимной Вселенной...
6
00:02:28,570 --> 00:02:32,880
...маленькая планета Тугадор,
скрытая в глубинах галактики Аркана.
-----------------------------
736
01:22:47,240 --> 01:22:49,720
Летим в галактику Аркана.
737
01:22:51,000 --> 01:22:54,626
Будь осторожен и возвращайся как
только сможешь. Я приготовлю ужин.
738
01:22:54,720 --> 01:22:57,660
А как там космонавты из галактики
Аркана?
739
01:22:57,940 --> 01:23:00,140
Они прибудут позже.
740
01:23:07,940 --> 01:23:11,140
Перевод с англ. субтитров
disluo

Скриншоты



























cd Рип дополнительно залит на mail.ru cd2
Gosti iz galaksije 1981.XviD.DVDRip.Rus.kosmoaelita.mkv.torrent
 GOLD TORRENT! DOWNLOAD TRAFFIC DOES NOT CONSIDER! 
Torrent: Registered [ 2014-06-01 20:25 ]

Download .torrent

Download

59 KB

Status: checked
Completed: 7 times
Size: 1.48 GB
 
 

Guest ®

Gender: Unknown

Post 10-Nov-2012 11:15 (after 1 minute)

[Quote]

есть сербский тврип (какой тут) и чешский какой на рутрекере с сабами
 

Guest ®

Gender: Unknown

Post 01-Jun-2014 15:48 (after 1 year 6 months)

[Quote]

обнови
https://karagarga.net/details.php?id=169300
 

admin

Gender: Male

Longevity: 7 years

Posts: 4725

Location: Україна

Post 01-Jun-2014 20:26 (after 4 hours)

[Quote]

Перезалито в лучшем качестве видео
Полностью переписан тайминг субтитров, подправлен перевод
При озвучке часть текста пропущена
[Profile] [PM]
Display posts:    
Reply to topic

Current time is: 18-Sep 09:01

All times are UTC + 3



You cannot post new topics in this forum
You cannot reply to topics in this forum
You cannot edit your posts in this forum
You cannot delete your posts in this forum
You cannot vote in polls in this forum
You cannot attach files in this forum
You can download files in this forum