Третий дракон / Treti sarkan (Петер Гледик) [1985 г., фантастика, TVRip] БП, Словацкий

Topic locked
 
Author Message

Guest ®

Gender: Unknown

Post 10-Nov-2012 10:50

[Quote]

Третий дракон / Treti sarkan
Год выпуска: 1985
Страна: Чехословакия
Жанр: фантастика
Продолжительность: 01:12:35
Перевод: Отсутствует Словацкий язык
Режиссер: Петер Гледик
В ролях: Патрик Шима,Ян Крижик,Борис Трстян,Радован Лукавски,Мариан Словак,Франтишек Гусак,
Яромир Кучера,Мариан Сотник
Описание: Название «Третий дракон» относится к третьему космическому кораблю, посланному на Землю с умирающей планеты Лурида. Лурида умирает из-за того, что загрязнение воздуха, воды и почвы вышло из-под контроля. Спрятанный в шахте Драконьей горы космический корабль находят три мальчика, которые решили исследовать эту территорию.
Космический корабль был послан на Землю в Средние века для того, чтобы узнать, как земляне сдерживают процесс загрязнения, но так как он прибывает на Землю немного рано, он ждёт своего времени. Мальчики «засыпают» в корабле и в это время он их перемещает на Луриду, где они наблюдают ужасный эффект небрежного отношения к природе. Конечно же, они помогают спасти планету и возвращаются на Землю вовремя, чтобы предупредить взрослых об их будущем, если не защищать природу от загрязнения.

Качество: TVRip
Формат: AVI
Видео: x264, 2245 кбит/с, 720x536, 25 к/с
Аудио: Словацкий 48 kHz, AC3 Dolby Digital, 2/0 (L,R) ch, ~192 kbps



Релиз

Для Украины: рип и оригинальный ДВД дополнительно залиты в файлохранилище
Для удаления и добавления дорожек в mkv используйте бесплатную mkvmerge GUI 5.80

Дополнительно

Рецензия

MediaInfo

Общее
Уникальный идентификатор : 204305759334782204129799123150641220077 (0x99B3DBA402E09875BD147F0084A6C9ED)
Полное имя : F:\Третий дракон Treti sarkan 1985.x264.TVRip.mkv
Формат : Matroska
Версия формата : Version 4 / Version 2
Размер файла : 1,24 Гбайт
Продолжительность : 1 ч. 12 м.
Общий поток : 2439 Кбит/сек
Название фильма : Tretí sarkan / Третий дракон / 1985 / rip by sasha20072007 (2012-12-19)
Дата кодирования : UTC 2012-12-19 14:25:19
Программа кодирования : mkvmerge v5.9.0 ('On The Loose') built on Dec 15 2012 16:39:58
Библиотека кодирования : libebml v1.3.0 + libmatroska v1.4.0
Attachment : Yes
Видео
Идентификатор : 1
Формат : AVC
Формат/Информация : Advanced Video Codec
Профиль формата : High@L4.1
Параметр CABAC формата : Да
Параметр ReFrames формата : 10 кадров
Идентификатор кодека : V_MPEG4/ISO/AVC
Продолжительность : 1 ч. 12 м.
Битрейт : 2245 Кбит/сек
Ширина : 720 пикселей
Высота : 536 пикселей
Соотношение сторон : 4:3
Режим частоты кадров : Постоянный
Частота кадров : 25,000 кадров/сек
Цветовое пространство : YUV
Субдискретизация насыщенности : 4:2:0
Битовая глубина : 8 бит
Тип развёртки : Прогрессивная
Бит/(Пиксели*Кадры) : 0.233
Размер потока : 1,11 Гбайт (90%)
Библиотека кодирования : x264 core 125 r2208 d9d2288
Настройки программы : cabac=1 / ref=10 / deblock=1:0:0 / analyse=0x3:0x133 / me=umh / subme=10 / psy=1 / psy_rd=1.00:0.15 / mixed_ref=1 / me_range=24 / chroma_me=1 / trellis=2 / 8x8dct=1 / cqm=0 / deadzone=21,11 / fast_pskip=1 / chroma_qp_offset=-3 / threads=4 / lookahead_threads=1 / sliced_threads=0 / nr=0 / decimate=1 / interlaced=0 / bluray_compat=0 / constrained_intra=0 / bframes=10 / b_pyramid=2 / b_adapt=2 / b_bias=0 / direct=3 / weightb=1 / open_gop=0 / weightp=2 / keyint=220 / keyint_min=22 / scenecut=40 / intra_refresh=0 / rc_lookahead=60 / rc=2pass / mbtree=1 / bitrate=2245 / ratetol=1.0 / qcomp=0.60 / qpmin=0 / qpmax=69 / qpstep=4 / cplxblur=20.0 / qblur=0.5 / vbv_maxrate=17500 / vbv_bufsize=14000 / nal_hrd=none / ip_ratio=1.40 / aq=1:0.90
Default : Да
Forced : Нет
Аудио
Идентификатор : 2
Формат : AC-3
Формат/Информация : Audio Coding 3
Расширение режима : CM (complete main)
Параметр Endianness формата : Big
Идентификатор кодека : A_AC3
Продолжительность : 1 ч. 12 м.
Вид битрейта : Постоянный
Битрейт : 192 Кбит/сек
Каналы : 2 канала
Расположение каналов : Front: L R
Частота : 48,0 КГц
Битовая глубина : 16 бит
Метод сжатия : С потерями
Размер потока : 99,7 Мбайт (8%)
Язык : Slovak
Default : Да
Forced : Нет

Скриншоты




 

Booris2 ®

Gender: Unknown

Post 19-Dec-2012 08:42 (after 1 month 8 days)

[Quote]

Спасибо за кино - мне было важно его наконец-то досмотреть. Понял ВСЁ!!!!
Помог украинский и консультация с Джони Вокером в 3-х чтениях. ag
Видео на ютубе проблемное - дичайший рассинхрон. Пришлось из онлайна выдрать и в редакторе шаманить. Возможно данный релиз такой же. Сделайте чё-нть, а то мало того, что по-узбекски, так ещё пойди разбери - кто сказал.
Могу свою подшаманенную предложить для замены на ютубе . Залью куда скажете.
 

admin

Gender: Male

Longevity: 7 years 1 month

Posts: 4725

Location: Україна

Post 19-Dec-2012 11:31 (after 2 hours 49 minutes)

[Quote]

Торрент и ютуб перезалит.
Новый рип без рассинхрона.
[Profile] [PM]

Guest ®

Gender: Unknown

Post 19-Jan-2013 13:42 (after 1 month)

[Quote]

двд вроде как вышел
http://filmovizia.blogspot.ru/2013/01/treti-sarkan-1985.html
 

Guest ®

Gender: Unknown

Post 08-Sep-2013 05:50 (after 7 months 19 days)

[Quote]

THANK YOU
 

Guest ®

Gender: Unknown

Post 19-Sep-2013 15:01 (after 11 days)

[Quote]

чешские субтитры
http://yadi.sk
задался вопросом на какие фильмы чешские еще можно сделать субтитры, там был фильм Черное солнце 80 года, может к нему? кто подскажет
 

admin

Gender: Male

Longevity: 7 years 1 month

Posts: 4725

Location: Україна

Post 19-Sep-2013 15:53 (after 51 minute)

[Quote]

P/S/ Я не знаток словацкого и чешского, но по-моему язык фильма словацкий, а субтитры - чешские (или частично чешские, так как во многих случаях текст субтитров отличается от разговоров в фильме)


Last edited by admin on 2014-05-17 18:36; edited 1 time in total
[Profile] [PM]

Guest ®

Gender: Unknown

Post 19-Sep-2013 17:41 (after 1 hour 48 minutes)

[Quote]

я смотрел на Фениксе,он с июня там не был. Смысл передан. Уж лучше чем англ. Щас Одиссей и Звезды почти готов, Черное солнце 1980 сказал чтобы делал,дальше не знаю что, может по классикам фантастики что-нить есть, возможность нельзя упускать
 

Guest ®

Gender: Unknown

Post 20-Sep-2013 08:51 (after 15 hours)

[Quote]

P/S/ Я не знаток словацкого и чешского, но по-моему язык фильма словацкий, а субтитры - чешские (или частично чешские, так как во многих случаях текст субтитров отличается от разговоров в фильме)
Там полностью чешские субтитры.
 

Guest ®

Gender: Unknown

Post 03-Oct-2013 19:32 (after 13 days)

[Quote]

кто из вас del?
kinomechanik отправил Вам это письмо
Но я не получал титры на фильм "третий дракон" первый раз слышу, извините. Может какой-то сбой?
 

admin

Gender: Male

Longevity: 7 years 1 month

Posts: 4725

Location: Україна

Post 23-May-2014 21:21 (after 7 months 20 days)

[Quote]

http://kosmoaelita.com/viewtopic.php?t=1228
[Profile] [PM]
Display posts:    
Topic locked

Current time is: 21-Oct 06:37

All times are UTC + 3



You cannot post new topics in this forum
You cannot reply to topics in this forum
You cannot edit your posts in this forum
You cannot delete your posts in this forum
You cannot vote in polls in this forum
You cannot attach files in this forum
You cannot download files in this forum