Куда исчезли все люди (ТВ) / Where Have All the People Gone (Джон Левеллин Мокси) [1974 г., фантастика, SATRip] ЛО (В.Воронцов), СТ

Reply to topic
 
Author Message

Guest ®

Gender: Unknown

Post 08-Nov-2012 04:31

[Quote]

Куда исчезли все люди (ТВ) / Where Have All the People Gone
Год выпуска: 1974
Страна: США, Alpine Productions Inc., Metromedia Producers Corporation (MPC), The Jozak Company
Жанр: фантастика, постапокалипсис
Продолжительность: 01:12:16
Перевод: Любительский (одноголосый) В.Воронцов
Режиссер: Джон Левеллин Мокси
В ролях: Питер Грейвз, Джордж О’Хенлон мл., Кэтлин Куинлен, Верна Блум, Michael-James Wixted, Ноубл Уиллингэм, Джей В. Макинтош, Даг Чапин, Кен Сэнсом, Дэн Бэрроус
Описание: Странная солнечная активность приводит к тому, что на Земле начинают происходить загадочные явления. Люди превращаются в белый порошок, оставляя после себя только одежду. Животные начинают вести себя неадекватно и даже агрессивно. Лишь несколько представителей человеческого рода, наделенные иммунитетом против этих солнечных вспышек, остаются одни на нашей планете. Герои картины, археолог Стивен Андерс и его дети Дэвид и Дебора возвращаются в свой город после уик-энда в горах и не встречают ни одной живой души…
Стивен Андерс и его семья поехали в горы на отдых. Внезапно какой-то яркий свет ослепляет все вокруг. Когда Стивен очнулся, он решает вернуться в город, решив что это какое-то стихийное бедствие. Однако, вскоре сын Стивена Дэвид, дочь Дебра, и сам Стивен понимают что это «стихийное бедствие» заставило исчезнуть 99 % населения всей планеты. Постепенно они сталкиваются с другими, кто по непонятной причине избежал исчезновения, а также с другими последствиями ужасной катастрофы

Качество: SATRip
Формат: MKV
Видео: x264, 1621 кбит/с, 720x536, 23.976 к/с
Аудио: Русский (AC3, 2 ch, 192 Кбит/с)
Аудио: Английский (AC3, 2 ch, 192 Кбит/с)
Субтитры : Русские


Релиз

Релиз videodemons.com
Рип с ДВД САТРипа с CG - sasha20072007
Лог кодирования - в контейнере.
Перевод: Владимир Воронцов, специально для проекта videodemons.com.
Спасибо всем принявшим участие в спонсорской помощи! (e-ball, Vikachka, Ivanov, Violator)
Сравнение версий 1
Сравнение версий 2
Для Украины: рип дополнительнозалит в файлохранилище
Для удаления и добавления дорожек в mkv используйте бесплатную mkvmerge GUI 5.80

Дополнительно

Also Known As (AKA)
¿Dónde está todo el mundo? Spain
Les derniers survivants France

Рецензия

Странная солнечная активность приводит к тому, что на Земле начинают происходить загадочные явления. Люди превращаются в белый порошок, оставляя после себя только одежду. Животные начинают вести себя неадекватно и даже агрессивно. Лишь несколько представителей человеческого рода, наделенные иммунитетом против этих солнечных вспышек, остаются одни на нашей планете. Герои картины, археолог Стивен Андерс и его дети Дэвид и Дебора возвращаются в свой город после уик-энда в горах и не встречают ни одной живой души…
Очень приятный фильм. Сценарий к картине написал знаменитый Льюис Джон Карлино, приложивший руку к таким известным фильмам, как «Секунды» (1966), «Механик» (1972), «Отражение страха» (1973), «Воскрешение» (1980), «Проклятое лето» (1988). Картина снималась только для телевидения. Без оценки.

MediaInfo

Общее
Уникальный идентификатор : 192700069230675084541322700748508107490 (0x90F8AEF0CA98A8268D137DF7F96812E2)
Полное имя : F:\Where Have All the People Gone 1974.x264.SATRip.mkv
Формат : Matroska
Версия формата : Version 4 / Version 2
Размер файла : 1,14 Гбайт
Продолжительность : 1 ч. 12 м.
Общий поток : 2242 Кбит/сек
Название фильма : Where Have All the People Gone / 1974 / rip by sasha20072007 (2012-11-08)
Дата кодирования : UTC 2010-02-22 21:41:31
Программа кодирования : mkvmerge v5.8.0 ('No Sleep / Pillow') built on Sep 30 2012 10:57:14
Библиотека кодирования : libebml v1.3.0 + libmatroska v1.4.0
Attachment : Yes / Yes
Видео
Идентификатор : 1
Формат : AVC
Формат/Информация : Advanced Video Codec
Профиль формата : High@L4.1
Параметр CABAC формата : Да
Параметр ReFrames формата : 8 кадров
Идентификатор кодека : V_MPEG4/ISO/AVC
Битрейт : 1621 Кбит/сек
Ширина : 720 пикселей
Высота : 536 пикселей
Соотношение сторон : 4:3
Режим частоты кадров : Переменный
Частота кадров в оригинале : 23,976 кадра/сек
Цветовое пространство : YUV
Субдискретизация насыщенности : 4:2:0
Битовая глубина : 8 бит
Тип развёртки : Прогрессивная
Библиотека кодирования : x264 core 125 r2208 d9d2288
Настройки программы : cabac=1 / ref=8 / deblock=1:-1:-1 / analyse=0x3:0x133 / me=umh / subme=10 / psy=1 / psy_rd=1.00:0.15 / mixed_ref=1 / me_range=24 / chroma_me=1 / trellis=2 / 8x8dct=1 / cqm=0 / deadzone=21,11 / fast_pskip=1 / chroma_qp_offset=-3 / threads=4 / lookahead_threads=1 / sliced_threads=0 / nr=0 / decimate=1 / interlaced=0 / bluray_compat=0 / constrained_intra=0 / bframes=8 / b_pyramid=2 / b_adapt=2 / b_bias=0 / direct=1 / weightb=1 / open_gop=0 / weightp=2 / keyint=220 / keyint_min=22 / scenecut=40 / intra_refresh=0 / rc_lookahead=60 / rc=crf / mbtree=1 / crf=20.0 / qcomp=0.60 / qpmin=0 / qpmax=69 / qpstep=4 / vbv_maxrate=17500 / vbv_bufsize=14000 / crf_max=0.0 / nal_hrd=none / ip_ratio=1.40 / aq=1:0.80
Default : Да
Forced : Нет
Аудио #1
Идентификатор : 2
Формат : AC-3
Формат/Информация : Audio Coding 3
Расширение режима : CM (complete main)
Параметр Endianness формата : Big
Идентификатор кодека : A_AC3
Продолжительность : 1 ч. 12 м.
Вид битрейта : Постоянный
Битрейт : 192 Кбит/сек
Каналы : 2 канала
Расположение каналов : Front: L R
Частота : 48,0 КГц
Битовая глубина : 16 бит
Метод сжатия : С потерями
Размер потока : 99,9 Мбайт (9%)
Заголовок : Русский (Воронцов)
Язык : Russian
Default : Да
Forced : Нет
Аудио #2
Идентификатор : 3
Формат : AC-3
Формат/Информация : Audio Coding 3
Расширение режима : CM (complete main)
Параметр Endianness формата : Big
Идентификатор кодека : A_AC3
Продолжительность : 1 ч. 12 м.
Вид битрейта : Постоянный
Битрейт : 384 Кбит/сек
Каналы : 2 канала
Расположение каналов : Front: L R
Частота : 48,0 КГц
Битовая глубина : 16 бит
Метод сжатия : С потерями
Размер потока : 200 Мбайт (17%)
Язык : English
Default : Нет
Forced : Нет
Текст
Идентификатор : 4
Формат : UTF-8
Идентификатор кодека : S_TEXT/UTF8
Идентификатор кодека/Информация : UTF-8 Plain Text
Заголовок : Русский
Язык : Russian
Default : Да
Forced : Нет

Скриншоты



Скринлист

Файл дополнительно залит на ОБЛАКО Фильм онлайн на Ютуб
 

admin

Gender: Male

Longevity: 7 years 2 months

Posts: 4723

Post 08-Nov-2012 10:29 (after 5 hours)

[Quote]

Вроде, получше качество есть...
Торрент перезалит
[Profile] [PM]

Guest ®

Gender: Unknown

Post 21-Dec-2012 15:45 (after 1 month 13 days)

[Quote]

Дайте скорости, давно искал этот фильм!!!
 
Quick Reply

Name:

            
Heads necessary to send messages to enable JavaScript
Display posts:    
Reply to topic

Current time is: 17-Nov 20:43

All times are UTC + 3



You cannot post new topics in this forum
You can reply to topics in this forum
You cannot edit your posts in this forum
You cannot delete your posts in this forum
You cannot vote in polls in this forum
You cannot attach files in this forum
You cannot download files in this forum