Железный человек №28 / Tetsujin 28 Go / 鉄人28号 [1-2] (Сантару Маруне) [1960, Япония, фантастика, DVDRip] (СТ: Olskan) (СТ: англ.хардсаб) (Sub Rus, Eng)

Reply to topic
DL-List and Torrent activity
Size:  601 MB   |    Registered:  20 hours   |    Completed:  0 times

Seeder not seen: 18 minutes

 
   
 
 
 
Author Message

Faer ®

Gender: Male

Longevity: 6 years 8 months

Posts: 690

Post 08-Sep-2021 07:21

[Quote]

Железный человек №28 / Tetsujin 28 Go / 鉄人28号
Страна: Япония
Жанр: фантастика
Год выпуска: 1960
Продолжительность: 2 х 00:25:15
Перевод 1: Субтитры andrewmarko, Mr.Faer, Laman [Olskan]
Cубтитры: русские (софтсаб), английские (хардсаб)
Режиссер: Сантару Маруне
В ролях: Вакасуги Эйдзи, Фудзино Такако, Суга Фудзио, Мородзуми Кэйдзиро, Кацура Кокиндзи, Татара Дзюн
Описание: Экранизация оригинальной манги Мицутеру Ёкоямы, первый сериал с участием гигантского робота.
Дополнительная информация: Речь идёт именно о гигантском роботе, обычные роботы уже появлялись в Юных детективах (1954), в качестве одного из противников Лунной Маски (~1959), главный герой сериала "Могучий Атом" (1959) был андройдом, и периодически противостоял роботам.
Качество видео: DVDRip
Формат видео: MKV
Видео: AVC, 640*480, 3:2, 29.976fps, 1500 Кбит/с
Аудио 1: AAC, 48,0 КГц, 160 Кбит/с, стерео
Формат субтитров: softsub (SSA/ASS)

MediaInfo

Общее
Уникальный идентификатор : 267840223830943266380538524694793282350 (0xC9802696D063B11CB3887DFB199DE32E)
Полное имя : C:\Users\ИТО\Desktop\Tetsujin #28 (1960) - 01.mkv
Формат : Matroska
Версия формата : Version 4
Размер файла : 300 Мбайт
Продолжительность : 25 м. 15 с.
Общий поток : 1 663 Кбит/сек
Дата кодирования : UTC 2021-09-08 04:04:45
Программа кодирования : mkvmerge v52.0.0 ('Secret For The Mad') 64-bit
Библиотека кодирования : libebml v1.4.1 + libmatroska v1.6.2
Видео
Идентификатор : 1
Формат : AVC
Формат/Информация : Advanced Video Codec
Профиль формата : Baseline@L3
Настройки формата : 6 Ref Frames
Параметр CABAC формата : Нет
Параметр RefFrames формата : 6 кадров
Идентификатор кодека : V_MPEG4/ISO/AVC
Продолжительность : 25 м. 15 с.
Битрейт : 1 500 Кбит/сек
Ширина : 640 пикселей
Высота : 440 пикселей
Соотношение сторон : 3:2
Режим частоты кадров : Постоянный
Частота кадров : 23,976 (24000/1001) кадра/сек
Цветовое пространство : YUV
Субдискретизация насыщенности : 4:2:0
Битовая глубина : 8 бит
Тип развёртки : Прогрессивная
Бит/(Пиксели*Кадры) : 0.222
Размер потока : 271 Мбайт (90%)
Библиотека кодирования : x264 core 144 r2525 40bb568
Настройки программы : cabac=0 / ref=6 / deblock=1:-1:-1 / analyse=0x1:0x111 / me=umh / subme=7 / psy=1 / psy_rd=1.00:0.00 / mixed_ref=0 / me_range=16 / chroma_me=1 / trellis=1 / 8x8dct=0 / cqm=0 / deadzone=21,11 / fast_pskip=0 / chroma_qp_offset=-2 / threads=3 / lookahead_threads=1 / sliced_threads=0 / nr=0 / decimate=1 / interlaced=0 / bluray_compat=0 / constrained_intra=0 / bframes=0 / weightp=0 / keyint=250 / keyint_min=23 / scenecut=40 / intra_refresh=0 / rc_lookahead=60 / rc=2pass / mbtree=1 / bitrate=1500 / ratetol=1.0 / qcomp=0.60 / qpmin=10 / qpmax=69 / qpstep=4 / cplxblur=20.0 / qblur=0.5 / ip_ratio=1.40 / aq=1:1.00
Язык : English
Default : Да
Forced : Нет
Аудио
Идентификатор : 2
Формат : AAC LC
Формат/Информация : Advanced Audio Codec Low Complexity
Идентификатор кодека : A_AAC-2
Продолжительность : 25 м. 14 с.
Битрейт : 160 Кбит/сек
Каналы : 2 канала
Channel layout : L R
Частота : 48,0 КГц
Частота кадров : 46,875 кадров/сек (1024 SPF)
Метод сжатия : С потерями
Размер потока : 28,9 Мбайт (10%)
Язык : Japanese
Default : Да
Forced : Нет
Текст
Идентификатор : 3
Формат : ASS
Идентификатор кодека : S_TEXT/ASS
Идентификатор кодека/Информация : Advanced Sub Station Alpha
Продолжительность : 25 м. 5 с.
Битрейт : 116 бит/сек
Count of elements : 270
Метод сжатия : Без потерь
Размер потока : 21,5 Кбайт (0%)
Default : Да
Forced : Нет

Скриншоты






Tetsujin #28 (1960).torrent
 GOLD TORRENT! DOWNLOAD TRAFFIC DOES NOT CONSIDER! 
Torrent: Registered [ Yesterday 17:59 ]

Download .torrent

Download

47 KB

Status: checked
Completed: 0 times
Size: 601 MB
 


Last edited by Faer on Yesterday 17:59; edited 1 time in total
[Profile] [PM]

archestrategos

Gender: Male

Longevity: 1 year 9 months

Posts: 97

Location: СССР

Post 09-Sep-2021 12:57 (after 1 day 5 hours)

[Quote]

О, эти прекрасные японские ретророботы. Надо посмотреть смайлик+
[Profile] [PM]

Faer ®

Gender: Male

Longevity: 6 years 8 months

Posts: 690

Post Yesterday 18:13 (after 17 days)

[Quote]

Добавлена вторая серия.
[Profile] [PM]
Display posts:    
Reply to topic

Current time is: 27-Sep 14:10

All times are UTC + 3



You can post new topics in this forum
You cannot reply to topics in this forum
You cannot edit your posts in this forum
You cannot delete your posts in this forum
You cannot vote in polls in this forum
You cannot attach files in this forum
You can download files in this forum