По ту сторону реальности / Beyond Reality / Сезон 1: Серии: 1-20 из 20 (Аллен Крокер, Марио Аццопарди, Рене Боньер и др.) [1991-1992, Канада, США, ужасы, фантастика, драма, детектив, DVDRemux] АО (Виктор Рутилов)

Reply to topic
 
Author Message

Darth_47 ®

Gender: Male

Longevity: 2 years 4 months

Posts: 948

Post 05-Sep-2021 22:03

[Quote]

По ту сторону реальности / Beyond Reality- Страна: Канада, США
Жанр: ужасы, фантастика, драма, детектив
Год выпуска: 1991-1992
Продолжительность: 20 серий по ~24 минуты-Перевод: Авторский (одноголосый закадровый) (Виктор Рутилов)
Субтитры: нет-Режиссеры: Аллен Крокер, Марио Аццопарди, Рене Боньер и др.-В ролях: Шари Белафонте, Карл Маротт, Николь де Бур, Дэвид Нермэн, Дженнифер Мартин, Энн-Мари МакДоналд, Эррол Слю, Колм Фиор, Дэвид Хьюлетт, Элиас Зэроу и др.-Описание: Сериал основан на реальных историях, не поддающихся научному объяснению. Эти события исследуют два университетских профессора. Лора Вингейт — парапсихолог, которая обогнула весь земной шар, изучая все от столкновений с НЛО, до опытов над людьми, призраков и полтергейста. Джей Джей Стилман — клинический физиолог-традиционалист. Вместе они формируют Отдел Парапсихологии в Городском университете, где исследуют таинственный, очаровательный и всегда спорный мир не поддающихся объяснению событий.- -Релиз почившего трекера Синемаскоп
За восстановление материала большое спасибо пользователю kandid!
Работа над релизом:
Авторский перевод - Виктор Рутилов
Спонсоры перевода - неизвестны
-

Список серий

01. Mirror, Mirror
02. The Doppelgänger
03. Miracle Worker
04. Return Visit
05. Intimate Shadows
06. Echoes of Evil
07. Range of Motion
08. The Cold
09. The Bridge
10. Black Magic
11. Enemy in Our Midst
12. Asylum
13. Killer Instinct
14. Sins of the Father
15. Nightmare Without End
16. Master of Darkness
17. Siren Song
18. Justice
19. The Fire Within
20. The Color of Mad
-Качество видео: DVDRemux
Формат видео: MKV
Видео: MPEG2 Video 720x480 (4:3) 29.97fps 3895 kb/s
Аудио: Dolby AC3 48000Hz stereo 192kbps [Русский АО (Виктор Рутилов)]-

MediaInfo

General
Unique ID                      : 184508412463566822871836259072047467787 (0x8ACF07146E2FE3FD604777A9EA924D0B)
Complete name                  : Beyond Reality s01e01 Mirror, Mirror 1991.DVDRemux.Rus.kosmoaelita.mkv
Format                         : Matroska
Format version                 : Version 4
File size                      : 690 MiB
Duration                       : 23 min 34 s
Overall bit rate mode          : Variable
Overall bit rate               : 4 090 kb/s
Encoded date                   : UTC 2021-09-05 18:30:53
Writing application            : mkvmerge v35.0.0 ('All The Love In The World') 64-bit
Writing library                : libebml v1.3.9 + libmatroska v1.5.2
Video
ID                             : 1
Format                         : MPEG Video
Format version                 : Version 2
Format profile                 : Main@Main
Format settings                : CustomMatrix / BVOP
Format settings, BVOP          : Yes
Format settings, Matrix        : Custom
Format settings, GOP           : Variable
Format settings, picture struc : Frame
Codec ID                       : V_MPEG2
Codec ID/Info                  : MPEG 1 or 2 Video
Duration                       : 23 min 34 s
Bit rate mode                  : Variable
Bit rate                       : 3 895 kb/s
Maximum bit rate               : 7 700 kb/s
Width                          : 720 pixels
Height                         : 480 pixels
Display aspect ratio           : 4:3
Frame rate mode                : Constant
Frame rate                     : 29.970 (30000/1001) FPS
Standard                       : NTSC
Color space                    : YUV
Chroma subsampling             : 4:2:0
Bit depth                      : 8 bits
Scan type                      : Interlaced
Scan order                     : Bottom Field First
Compression mode               : Lossy
Bits/(Pixel*Frame)             : 0.376
Time code of first frame       : 01:00:00;00
Time code source               : Group of pictures header
GOP, Open/Closed               : Closed
Stream size                    : 657 MiB (95%)
Title                          : kosmoaelita
Language                       : English
Default                        : Yes
Forced                         : No
Color primaries                : BT.601 NTSC
Transfer characteristics       : BT.601
Matrix coefficients            : BT.601
Audio
ID                             : 2
Format                         : AC-3
Format/Info                    : Audio Coding 3
Commercial name                : Dolby Digital
Codec ID                       : A_AC3
Duration                       : 23 min 32 s
Bit rate mode                  : Constant
Bit rate                       : 192 kb/s
Channel(s)                     : 2 channels
Channel layout                 : L R
Sampling rate                  : 48.0 kHz
Frame rate                     : 31.250 FPS (1536 SPF)
Compression mode               : Lossy
Stream size                    : 32.3 MiB (5%)
Title                          : Русский АО (Виктор Рутилов)
Language                       : Russian
Service kind                   : Complete Main
Default                        : Yes
Forced                         : No
Menu
00:00:00.000                   : en:Chapter 01
00:04:50.757                   : en:Chapter 02
00:13:43.355                   : en:Chapter 03
00:23:32.544                   : en:Chapter 04

Скриншоты







Last edited by Darth_47 on 2021-09-10 19:43; edited 1 time in total
[Profile] [PM]

Darth_47 ®

Gender: Male

Longevity: 2 years 4 months

Posts: 948

Post 10-Sep-2021 19:15 (after 4 days)

[Quote]

Добавлены серии 12-20. В раздаче полный первый сезон!
Папка торрента переименована в "1991-1992 По ту сторону реальности (Beyond Reality) season 01".
[Profile] [PM]

CROMAG

Gender: Male

Longevity: 6 years

Posts: 3677

Location: Прибалтика

Post 10-Sep-2021 19:21 (after 6 minutes)

[Quote]

Черт Кудато исчезли первые две серии второго сезона Вроде они должны быть на двд
[Profile] [PM]

Darth_47 ®

Gender: Male

Longevity: 2 years 4 months

Posts: 948

Post 10-Sep-2021 19:36 (after 14 minutes)

[Quote]

29927Черт Кудато исчезли первые две серии второго сезона Вроде они должны быть на двд
Они есть. Будет отдельная раздача.
[Profile] [PM]
Quick Reply

Name:

            
Heads necessary to send messages to enable JavaScript
Display posts:    
Reply to topic

Current time is: 27-Sep 13:10

All times are UTC + 3



You cannot post new topics in this forum
You can reply to topics in this forum
You cannot edit your posts in this forum
You cannot delete your posts in this forum
You cannot vote in polls in this forum
You cannot attach files in this forum
You cannot download files in this forum