[2 сезон] Человек на шесть миллионов долларов / The Six Million Dollar Man [e1x?] (Ричард Ирвинг) [1974-1978, США, фантастика, приключения, BDRip-1080p] СТ (andrewmako, Mr.Faer [Olskan])

Reply to topic
 
Author Message

Faer ®

Gender: Male

Longevity: 6 years 8 months

Posts: 690

Post 10-Aug-2021 22:26

[Quote]

Человек на шесть миллионов долларов / The Six Million Dollar Man
Страна: США? Harve Bennett Productions, Silverton Productions Inc., Universal TV
Жанр: фантастика, боевик, драма, криминал, детектив
Год выпуска: 1974-1978
Продолжительность:~ 00:50:41
Перевод: Субтитры от andrewmako, Mr.Faer [Olskan]
Cубтитры: русские
Режиссер: Ричард Ирвинг
В ролях: Ли Мэйджорс, Барбара Андерсон, Мартин Болсам, Дэррен МакГэвин, Чарльз Робинсон, Айвор Бэрри, Дороти Грин, Энн Уитфилд, Джордж Уоллес, Роберт Корнтуэйт
Описание: Человек за шесть миллионов долларов - это американский научно-фантастический боевик, снятый с 1973 по 1978 год, о бывшем астронавте, полковнике ВВС США Стиве Остине, которого сыграл Ли Мейджорс. В результате крушения челнока, когда он находился при смерти, ему заменили ноги, руку и глаз на киберпротезы.
Список серий:

1. Ядерная угроза

2. The Pioneers
3. Pilot Error
4. The Pal-Mir Escort
5. The Seven Million Dollar Man
6. Straight on 'til Morning
...
Качество видео: BDRip-1080p
Формат: MKV
Видео: x264, ~3600 кбит/с, 1464x1080, 23.976 к/с
Аудио 2: Английский (AC3, 2 ch, 256 Кбит/с)
Субтитры : Русские ()
Работа над релизом:
Рип с немецкого блюра и тайминг субтитров - kosmoaelita
Перевод: andrewmako, Mr.Faer [Olskan]
Спонсоры перевода: пока никого смайлик+



Пример русского субтитрового перевода

Дополнительно

MediaInfo

Общее
Уникальный идентификатор : 181660835178466328441784996321461145149 (0x88AA9AAE1D0A6046812AA10E84F20E3D)
Полное имя : F:\The Six Million Dollar Man s02 1974 kosmoaelita\The Six Million Dollar Man s02e01 Nuclear Alert 1974.x264.BDRip.1080p.kosmoaelita.mkv
Формат : Matroska
Версия формата : Version 4
Размер файла : 1,38 Гбайт
Продолжительность : 50 м. 40 с.
Общий поток : 3895 Кбит/сек
Название фильма : The Six Million Dollar Man s2e01 "Nuclear Alert - Ядерная угроза" / 1974 / rip from BD50 by kosmoaelita (2021-07-22), crf=21.04
Дата кодирования : UTC 2021-08-22 02:08:05
Программа кодирования : mkvmerge v6.6.0 ('The Edge Of The In Between') built on Dec 1 2013 17:55:00
Библиотека кодирования : libebml v1.3.0 + libmatroska v1.4.1
Attachments : POSTER.jpg / 00005.mkv.encoding.log
Видео
Идентификатор : 1
Формат : AVC
Формат/Информация : Advanced Video Codec
Профиль формата : High@L4.1
Настройки формата : CABAC / 5 Ref Frames
Параметр CABAC формата : Да
Параметр RefFrames формата : 5 кадров
Идентификатор кодека : V_MPEG4/ISO/AVC
Продолжительность : 50 м. 40 с.
Битрейт : 3636 Кбит/сек
Ширина : 1464 пикселя
Высота : 1080 пикселей
Соотношение сторон : 4:3
Режим частоты кадров : Постоянный
Частота кадров : 23,976 кадра/сек
Цветовое пространство : YUV
Субдискретизация насыщенности : 4:2:0
Битовая глубина : 8 бит
Тип развёртки : Прогрессивная
Бит/(Пиксели*Кадры) : 0.096
Размер потока : 1,26 Гбайт (91%)
Заголовок : http://kosmoaelita.com/viewtopic.php?t=3254
Библиотека кодирования : x264 core 146 r2538 121396c
Настройки программы : cabac=1 / ref=5 / deblock=1:-2:-2 / analyse=0x3:0x131 / me=umh / subme=10 / psy=1 / psy_rd=0.99:0.14 / mixed_ref=1 / me_range=32 / chroma_me=1 / trellis=2 / 8x8dct=1 / cqm=0 / deadzone=21,11 / fast_pskip=1 / chroma_qp_offset=-3 / threads=6 / lookahead_threads=1 / sliced_threads=0 / nr=0 / decimate=1 / interlaced=0 / bluray_compat=0 / constrained_intra=0 / bframes=8 / b_pyramid=2 / b_adapt=2 / b_bias=0 / direct=3 / weightb=1 / open_gop=0 / weightp=2 / keyint=210 / keyint_min=21 / scenecut=40 / intra_refresh=0 / rc_lookahead=80 / rc=2pass / mbtree=1 / bitrate=3636 / ratetol=1.0 / qcomp=0.65 / qpmin=0 / qpmax=69 / qpstep=4 / cplxblur=20.0 / qblur=0.5 / ip_ratio=1.25 / aq=1:0.90
Язык : English
Default : Да
Forced : Нет
Цветовой диапазон : Limited
Основные цвета : BT.709
Характеристики трансфера : BT.709
Коэффициенты матрицы : BT.709
Аудио
Идентификатор : 2
Формат : AC-3
Формат/Информация : Audio Coding 3
Коммерческое название : Dolby Digital
Идентификатор кодека : A_AC3
Продолжительность : 50 м. 40 с.
Вид битрейта : Постоянный
Битрейт : 256 Кбит/сек
Каналы : 2 канала
ChannelLayout : L R
Частота : 48,0 КГц
Частота кадров : 31,250 кадров/сек (1536 SPF)
Метод сжатия : С потерями
Размер потока : 92,8 Мбайт (7%)
Язык : English
ServiceKind/String : Complete Main
Default : Да
Forced : Нет
Текст #1
Идентификатор : 3
Формат : UTF-8
Идентификатор кодека : S_TEXT/UTF8
Идентификатор кодека/Информация : UTF-8 Plain Text
Заголовок : Русский (andrewmako, Mr.Faer [Olskan], kosmoaelita) srt
Язык : Russian
Default : Да
Forced : Нет
Текст #2
Идентификатор : 4
Формат : VobSub
Режим смешивания : zlib
Идентификатор кодека : S_VOBSUB
Идентификатор кодека/Информация : Picture based subtitle format used on DVDs
Заголовок : Русский (andrewmako, Mr.Faer [Olskan], kosmoaelita) VobSub
Язык : Russian
Default : Нет
Forced : Нет
Меню
00:00:00.000 : en:00:00:00.000
00:01:28.088 : en:00:01:28.088
00:06:00.360 : en:00:06:00.360
00:12:00.720 : en:00:12:00.720
00:18:01.080 : en:00:18:01.080
00:24:01.440 : en:00:24:01.440
00:30:01.800 : en:00:30:01.800
00:36:02.160 : en:00:36:02.160
00:42:02.520 : en:00:42:02.520
00:48:02.880 : en:00:48:02.880
00:50:40.663 : en:00:50:40.663

Скриншоты







Скринлист

[Profile] [PM]

kosmoaelita

Gender: Male

Longevity: 9 years

Posts: 1768

Post 13-Sep-2021 20:50 (after 1 month 2 days)

[Quote]

Замена на BDRip
[Profile] [PM]

Faer ®

Gender: Male

Longevity: 6 years 8 months

Posts: 690

Post 14-Sep-2021 02:57 (after 6 hours)

[Quote]

29961Замена на BDRip
У меня ещё восемь (или девять... Надо глянуть, как приеду с больницы). серий готовы, жду своей очереди на сбор.
[Profile] [PM]
Quick Reply

Name:

            
Heads necessary to send messages to enable JavaScript
Display posts:    
Reply to topic

Current time is: 27-Sep 12:51

All times are UTC + 3



You cannot post new topics in this forum
You can reply to topics in this forum
You cannot edit your posts in this forum
You cannot delete your posts in this forum
You cannot vote in polls in this forum
You cannot attach files in this forum
You cannot download files in this forum