Дитя Нации / National Kid [1-2] (Нагаеши Акасака) [1960, Япония, токусацу, научная фантастика, WEB-DLRip] (СТ: Mr.Faer [Olskan]) (Sub Rus)

Reply to topic
DL-List and Torrent activity
Size:  276 MB   |    Registered:  22 days   |    Completed:  1 time

Seeder not seen: 10 hours

 
   
 
 
 
Author Message

Faer ®

Gender: Male

Longevity: 6 years 6 months

Posts: 643

Post 02-Jul-2021 08:49

[Quote]

Дитя Нации / National Kid
Страна: Япония
Жанр: токусацу, научная фантастика
Год выпуска: 1960
Продолжительность: 00:25:00
Перевод 1: Субтитры Mr.Faer [Olskan]
Cубтитры: русские
Режиссер: Нагаеши Акасака, Дзюн Коике, Наруо Ватанабе
В ролях: Казуо Хара, Хидео Кимура, Ичиро Кодзима
Описание: Дитя Нации - посланник из галактики Андромеды, в тридцати тысячах световых лет от нас, бессмертный и защитник Земли. Его альтер-эго на Земле - Рюсаку Хата - внук и ученик всемирно известного ученого доктора Масачико Хаты, который проводит свою практику в пригороде Токио. Хата воспитывает пятерых детей-сирот, которые пытаются помочь в расследовании странных явлений в сериале, создав клуб Мальчиков-детективов.
Качество видео: WEB-DLRip
Видео: AVC, 640*480, 4:3,29.97fps, 602 Кбит/с
Аудио 1: AAC, 44,1 КГц, 128 Кбит/с, стерео
Формат субтитров: softsub (SSA/ASS)


Работа над релизом:
Видеоряд найден на youtube
Перевод: Mr.Faer
Спонсор перевода: Tokufan inc

MediaInfo

Общее
Уникальный идентификатор : 219508212651806418728924314726380925032 (0xA523BE75600D7E28A5AF2EE21238F068)
Полное имя : C:\Users\ИТО\Desktop\National Kid - 01.mkv
Формат : Matroska
Версия формата : Version 4
Размер файла : 130 Мбайт
Продолжительность : 24 м. 50 с.
Общий поток : 732 Кбит/сек
Дата кодирования : UTC 2021-07-02 05:47:18
Программа кодирования : mkvmerge v52.0.0 ('Secret For The Mad') 64-bit
Библиотека кодирования : libebml v1.4.1 + libmatroska v1.6.2
Видео
Идентификатор : 1
Формат : AVC
Формат/Информация : Advanced Video Codec
Профиль формата : Main@L3
Настройки формата : CABAC / 3 Ref Frames
Параметр CABAC формата : Да
Параметр RefFrames формата : 3 кадра
Идентификатор кодека : V_MPEG4/ISO/AVC
Продолжительность : 24 м. 50 с.
Битрейт : 602 Кбит/сек
Ширина : 648 пикселей
Высота : 480 пикселей
Соотношение сторон : 4:3
Режим частоты кадров : Постоянный
Частота кадров : 29,970 (30000/1001) кадров/сек
Цветовое пространство : YUV
Субдискретизация насыщенности : 4:2:0
Битовая глубина : 8 бит
Тип развёртки : Прогрессивная
Бит/(Пиксели*Кадры) : 0.065
Размер потока : 107 Мбайт (82%)
Default : Да
Forced : Нет
Аудио
Идентификатор : 2
Формат : AAC LC
Формат/Информация : Advanced Audio Codec Low Complexity
Идентификатор кодека : A_AAC-2
Продолжительность : 24 м. 50 с.
Битрейт : 128 Кбит/сек
Каналы : 2 канала
Channel layout : L R
Частота : 44,1 КГц
Частота кадров : 43,066 кадра/сек (1024 SPF)
Метод сжатия : С потерями
Размер потока : 22,7 Мбайт (17%)
Default : Да
Forced : Нет
Текст
Идентификатор : 3
Формат : UTF-8
Идентификатор кодека : S_TEXT/UTF8
Идентификатор кодека/Информация : UTF-8 Plain Text
Продолжительность : 24 м. 42 с.
Битрейт : 99 бит/сек
Count of elements : 356
Размер потока : 18,0 Кбайт (0%)
Язык : English
Default : Да
Forced : Нет

Скриншоты










National Kid.torrent
 SILVER TORRENT! DOWNLOAD TRAFFIC PARTIALLY CONSIDERED! 
Torrent: Registered [ 2021-07-06 12:14 ]

Download .torrent

Download

22 KB

Status: checked
Completed: 1 times
Size: 276 MB
 


Last edited by Faer on 2021-07-06 12:14; edited 1 time in total
[Profile] [PM]

Faer ®

Gender: Male

Longevity: 6 years 6 months

Posts: 643

Post 02-Jul-2021 08:55 (after 6 minutes)

[Quote]

Несколько серий есть на ютубе, в нормальном качестве и официальном переводе от Toei. Токуфан проспонсировал одну, посмотреть, как оно вообще.
Технически, Дитя Нации - второй сезон. У него есть предыстория "Underground", про подземных людей, которым он противостоит. Но именно Дитя Нации стал одним из легендарных сериалов-прародителей, а андерграунд такого успеха не имел.
[Profile] [PM]

Faer ®

Gender: Male

Longevity: 6 years 6 months

Posts: 643

Post 06-Jul-2021 12:16 (after 4 days)

[Quote]

Добавлена вторая серия.
[Profile] [PM]
Display posts:    
Reply to topic

Current time is: 29-Jul 11:12

All times are UTC + 3



You can post new topics in this forum
You cannot reply to topics in this forum
You cannot edit your posts in this forum
You cannot delete your posts in this forum
You cannot vote in polls in this forum
You cannot attach files in this forum
You can download files in this forum