Послание из космоса: Галактические войны / Message from Space: Galactic Wars / 宇宙からのメッセージ・銀河大戦 [1-3] (Сётаро Исиномори) [1978, Япония, фантастика, DVDRip] (СТ : Mr.Faer [Olskan]) (Sub Rus)

Reply to topic
DL-List and Torrent activity
Size:  532 MB   |    Registered:  3 months 5 days   |    Completed:  3 times

Seeders:

Username ULR UL DL UL speed DL speed
pompilius 1.1 613307017585 MB 0- 0- 0-
kosmoaelita 0.2 8501657681 MB 557814409532 MB 0- 0-
shows data only for the current session
 
   
 
 
 
Author Message

Faer ®

Gender: Male

Longevity: 6 years 8 months

Posts: 690

Post 19-Jun-2021 09:39

[Quote]

Послание из космоса: Галактические войны / Message from Space: Galactic Wars / 宇宙からのメッセージ・銀河大戦
Страна: Япония
Жанр: фантастика
Год выпуска: 1978
Продолжительность: 3 х 00:22:50
Перевод 1: Субтитры Mr.Faer [Olskan]
Cубтитры: русские
Режиссер: Сётаро Исиномори
В ролях: Хироюки Санада, Акира Ода, Рю Нишида, Ивао Табучи, Йоко Акитани
Описание: Спустя столетия после того, как люди Земли освоили межзвездные путешествия, человечество процветает по всей галактике. Но неожиданно для всех, одну из колоний захватывает империя Габан. На путь праведной мести и восстановления справедливости встаёт наш герой: недавний выпускник школы звёздных пилотов, Хаято Ген...
Доп. информация: Спин-офф одноименного фильма.
Качество видео: DVDRip
Формат видео: MKV
Видео: AVC, 720*544, 4:3, 23.976fps, 803 Кбит/с
Аудио 1: AAC, 48.0КГц, 117 Кбит/с, стерео

MediaInfo

Общее
Уникальный идентификатор : 15795851949164691864017549826845093197 (0xBE22BA113E2FC693F049A9A4258AD4D)
Полное имя : C:\Users\ИТО\Desktop\Messages From Space - Galaxy Wars 01.mkv
Формат : Matroska
Версия формата : Version 4
Размер файла : 151 Мбайт
Продолжительность : 22 м. 50 с.
Общий поток : 923 Кбит/сек
Дата кодирования : UTC 2021-06-18 07:53:19
Программа кодирования : mkvmerge v52.0.0 ('Secret For The Mad') 64-bit
Библиотека кодирования : libebml v1.4.1 + libmatroska v1.6.2
Видео
Идентификатор : 1
Формат : AVC
Формат/Информация : Advanced Video Codec
Профиль формата : High@L4.2
Настройки формата : CABAC / 4 Ref Frames
Параметр CABAC формата : Да
Параметр RefFrames формата : 4 кадра
Идентификатор кодека : V_MPEG4/ISO/AVC
Продолжительность : 22 м. 49 с.
Битрейт : 804 Кбит/сек
Ширина : 720 пикселей
Высота : 544 пикселя
Соотношение сторон : 4:3
Режим частоты кадров : Постоянный
Частота кадров : 23,976 (23976/1000) кадра/сек
Цветовое пространство : YUV
Субдискретизация насыщенности : 4:2:0
Битовая глубина : 8 бит
Тип развёртки : Прогрессивная
Бит/(Пиксели*Кадры) : 0.086
Размер потока : 131 Мбайт (87%)
Заголовок : VIDEO
Библиотека кодирования : x264 core 120 r2164 da19765
Настройки программы : cabac=1 / ref=3 / deblock=1:0:0 / analyse=0x3:0x113 / me=hex / subme=7 / psy=1 / psy_rd=1.00:0.00 / mixed_ref=1 / me_range=16 / chroma_me=1 / trellis=1 / 8x8dct=1 / cqm=0 / deadzone=21,11 / fast_pskip=1 / chroma_qp_offset=-2 / threads=12 / sliced_threads=0 / nr=0 / decimate=1 / interlaced=0 / bluray_compat=0 / constrained_intra=0 / bframes=3 / b_pyramid=2 / b_adapt=1 / b_bias=0 / direct=1 / weightb=1 / open_gop=0 / weightp=2 / keyint=240 / keyint_min=23 / scenecut=40 / intra_refresh=0 / rc_lookahead=40 / rc=crf / mbtree=1 / crf=24.0 / qcomp=0.60 / qpmin=0 / qpmax=69 / qpstep=4 / vbv_maxrate=31250 / vbv_bufsize=31250 / crf_max=0.0 / nal_hrd=none / ip_ratio=1.40 / aq=1:1.00
Язык : Japanese
Default : Да
Forced : Да
Аудио
Идентификатор : 2
Формат : AAC LC
Формат/Информация : Advanced Audio Codec Low Complexity
Идентификатор кодека : A_AAC-2
Продолжительность : 22 м. 48 с.
Битрейт : 117 Кбит/сек
Каналы : 2 канала
Channel layout : L R
Частота : 48,0 КГц
Частота кадров : 46,875 кадров/сек (1024 SPF)
Метод сжатия : С потерями
Размер потока : 19,1 Мбайт (13%)
Заголовок : AUDIO ENG
Язык : Japanese
Default : Да
Forced : Нет
Текст
Идентификатор : 3
Формат : ASS
Идентификатор кодека : S_TEXT/ASS
Идентификатор кодека/Информация : Advanced Sub Station Alpha
Продолжительность : 22 м. 50 с.
Битрейт : 106 бит/сек
Count of elements : 260
Метод сжатия : Без потерь
Размер потока : 17,8 Кбайт (0%)
Заголовок : Mr.Faer [Olskan]
Язык : Russian
Default : Да
Forced : Нет

Скриншоты






Messages From Space - Galaxy Wars.torrent
 GOLD TORRENT! DOWNLOAD TRAFFIC DOES NOT CONSIDER! 
Torrent: Registered [ 2021-06-22 05:09 ]

Download .torrent

Download

42 KB

Status: checked
Completed: 3 times
Size: 532 MB
 


Last edited by Faer on 2021-06-22 05:09; edited 3 times in total
[Profile] [PM]

pompilius

Gender: Male

Longevity: 3 years 10 months

Posts: 468

Post 20-Jun-2021 06:09 (after 20 hours)

[Quote]

Послание из космоса: Галактические воины / Message from Space: Galactic Wars
Воины или всё таки войны?
Wars
= войны, разве нет?
[Profile] [PM]

Faer ®

Gender: Male

Longevity: 6 years 8 months

Posts: 690

Post 21-Jun-2021 02:04 (after 19 hours)

[Quote]

29494
Послание из космоса: Галактические воины / Message from Space: Galactic Wars
Воины или всё таки войны?
Wars
= войны, разве нет?
Исправлю, хотя до непосредственно войн мы не дойдём.
*А на японском вообще война (в единственном числе).
[Profile] [PM]

Faer ®

Gender: Male

Longevity: 6 years 8 months

Posts: 690

Post 21-Jun-2021 08:35 (after 6 hours)

[Quote]

Заменена первая серия, добавлена вторая серия.
[Profile] [PM]

Faer ®

Gender: Male

Longevity: 6 years 8 months

Posts: 690

Post 22-Jun-2021 05:09 (after 20 hours)

[Quote]

Добавлена третья серия. Все доступные серии переведены.
[Profile] [PM]
Display posts:    
Reply to topic

Current time is: 27-Sep 13:01

All times are UTC + 3



You can post new topics in this forum
You cannot reply to topics in this forum
You cannot edit your posts in this forum
You cannot delete your posts in this forum
You cannot vote in polls in this forum
You cannot attach files in this forum
You can download files in this forum