Робот Магнос / Magnos the Robot (Колинс Уолкер, Майкл Холлер) [1976, Япония, США, фантастика, DVDRip-AVC] [Magne Robo Gakeen (английская версия)] (АО : Трамвай-фильм) (Sub Rus)

Reply to topic
DL-List and Torrent activity
Size:  597 MB   |    Registered:  3 months 9 days   |    Completed:  5 times

Seeders:

Username ULR UL DL UL speed DL speed
pompilius 0 0- 0- 0- 0-
shows data only for the current session
 
   
 
 
 
Author Message

Трамвай-фильм ®

Gender: Male

Longevity: 7 years 1 month

Posts: 1896

Location: Россия

Post 17-Jun-2021 13:46

[Quote]

Робот Магнос / Magnos the Robot / Magne Robo Gakeen (английская версия)
Страна: Япония, США
Жанр: фантастика
Год выпуска: 1976
Продолжительность: 01:30:05
Перевод : Авторский (одноголосый) Трамвай-фильм
Cубтитры: русские
Режиссер: Колинс Уолкер, Майкл Холлер
Описание: Доктор Нэверс узнает о существовании зловещей расы палеоготов, звездная система которых находится на грани коллапса, и которые готовы начать колонизацию Земли. Чтобы защититься от гигантских монстров, насылаемых пришельцами, Нэверс создает проект Магнос, ключевую роль в котором играет боевой робот.
Доп. информация: Полуторочасовая американская версия мультсериала Magne Robo Gakeen

Качество видео: DVDRip-AVC
Видео: MPEG4 Video (H264), 640x480, 25fps, 926 kb/s
Аудио 1: AAC, 44100Hz, stereo, 128 kb/s (русский)
Аудио 2: AAC, 44100Hz, stereo, 126 kb/s (английский)
Формат субтитров: softsub (SRT)
Доп. информация о субтитрах: Перевод надписей

MediaInfo

General
Format : Matroska
Format version : Version 4 / Version 2
File size : 597 MiB
Duration : 1 h 30 min
Overall bit rate : 926 kb/s
Encoded date : UTC 2021-06-17 10:26:34
Writing application : mkvmerge v7.1.0 ('Good Love') 32bit built on Jul 27 2014 12:59:18
Writing library : libebml v1.3.0 + libmatroska v1.4.1
Video
ID : 1
Format : AVC
Format/Info : Advanced Video Codec
Format profile : Main@L3
Format settings : CABAC / 3 Ref Frames
Format settings, CABAC : Yes
Format settings, ReFrames : 3 frames
Codec ID : V_MPEG4/ISO/AVC
Duration : 1 h 30 min
Bit rate : 670 kb/s
Width : 640 pixels
Height : 480 pixels
Display aspect ratio : 4:3
Frame rate mode : Constant
Frame rate : 25.000 FPS
Color space : YUV
Chroma subsampling : 4:2:0
Bit depth : 8 bits
Scan type : Progressive
Bits/(Pixel*Frame) : 0.087
Stream size : 431 MiB (72%)
Default : Yes
Forced : No
Color range : Limited
Color primaries : BT.601 PAL
Transfer characteristics : BT.709
Matrix coefficients : BT.601
Audio #1
ID : 2
Format : AAC
Format/Info : Advanced Audio Codec
Format profile : LC
Codec ID : A_AAC-2
Duration : 1 h 30 min
Bit rate : 128 kb/s
Channel(s) : 2 channels
Channel positions : Front: L R
Sampling rate : 44.1 kHz
Frame rate : 43.066 FPS (1024 SPF)
Compression mode : Lossy
Stream size : 82.5 MiB (14%)
Title : Трамвай-фильм
Language : Russian
Default : Yes
Forced : No
Audio #2
ID : 3
Format : AAC
Format/Info : Advanced Audio Codec
Format profile : LC
Codec ID : A_AAC-2
Duration : 1 h 30 min
Bit rate : 126 kb/s
Channel(s) : 2 channels
Channel positions : Front: L R
Sampling rate : 44.1 kHz
Frame rate : 43.066 FPS (1024 SPF)
Compression mode : Lossy
Stream size : 80.9 MiB (14%)
Language : English
Default : No
Forced : No
Text
ID : 4
Format : UTF-8
Codec ID : S_TEXT/UTF8
Codec ID/Info : UTF-8 Plain Text
Duration : 1 h 20 min
Bit rate : 0 b/s
Count of elements : 12
Stream size : 336 Bytes (0%)
Title : Надписи
Language : Russian
Default : Yes
Forced : Yes

Скриншоты





Magnos The Robot (1992).mkv.torrent
Torrent: Registered [ 2021-06-17 13:46 ]

Download .torrent

Download

12 KB

Status: checked
Completed: 5 times
Size: 597 MB
 
[Profile] [PM]
Display posts:    
Reply to topic

Current time is: 27-Sep 13:31

All times are UTC + 3



You cannot post new topics in this forum
You cannot reply to topics in this forum
You cannot edit your posts in this forum
You cannot delete your posts in this forum
You cannot vote in polls in this forum
You cannot attach files in this forum
You can download files in this forum