След / T.R.A.C.E. [1 из 7] (Джон К. Ву) [2014, США, фантастика, WEB-DL] (СТ: Olskan)

Reply to topic
DL-List and Torrent activity
Size:  75 MB   |    Registered:  4 months 16 days   |    Completed:  2 times

Seeders:

Username ULR UL DL UL speed DL speed
pompilius 0 0- 0- 0- 0-
shows data only for the current session
 
   
 
 
 
Author Message

Faer ®

Gender: Male

Longevity: 6 years 8 months

Posts: 687

Post 06-May-2021 11:05

[Quote]

След / T.R.A.C.E.
Страна: США
Жанр: фантастика
Год выпуска: 2014
Продолжительность: 1 х 00:05:54
Перевод 1: Субтитры: Uboaface [Olskan]
Режиссер: Джон К. Ву
В ролях: Мари Корбет, Кейт Коллинс II, Джастин МакДоноф
Описание: Доктор, вместе с несколькими Землями, пытается остановить Мастера.
Качество видео: WEB-DL
Формат видео: MKV
Видео: AVC, 1920х810, 2.40:1, 23.976 fps, 1646 Кбит/с
Аудио 1: AAC, 44.1кГц, 128 Кбит/с, стерео
Формат субтитров: softsub (SSA/ASS)

Работа над релизом:
Видеоряд найден в сети
Перевод: Uboaface
Тайминг и редакция: Mr.Faer
Релиз группы Olskan

MediaInfo

Общее
Уникальный идентификатор : 170011738317498388895618119873745915893 (0x7FE711DC98F15D2DADF3F7C4AA580FF5)
Полное имя : C:\Users\ИТО\Desktop\T.R.A.C.E. - 1.mkv
Формат : Matroska
Версия формата : Version 4
Размер файла : 75,0 Мбайт
Продолжительность : 5 м. 54 с.
Общий поток : 1 776 Кбит/сек
Дата кодирования : UTC 2021-05-06 07:49:54
Программа кодирования : mkvmerge v52.0.0 ('Secret For The Mad') 64-bit
Библиотека кодирования : libebml v1.4.1 + libmatroska v1.6.2
Видео
Идентификатор : 1
Формат : AVC
Формат/Информация : Advanced Video Codec
Профиль формата : High@L4
Настройки формата : CABAC / 3 Ref Frames
Параметр CABAC формата : Да
Параметр RefFrames формата : 3 кадра
Идентификатор кодека : V_MPEG4/ISO/AVC
Продолжительность : 5 м. 54 с.
Битрейт : 1 646 Кбит/сек
Ширина : 1 920 пикселей
Высота : 810 пикселей
Соотношение сторон : 2,40:1
Режим частоты кадров : Постоянный
Частота кадров : 23,976 (24000/1001) кадра/сек
Цветовое пространство : YUV
Субдискретизация насыщенности : 4:2:0
Битовая глубина : 8 бит
Тип развёртки : Прогрессивная
Бит/(Пиксели*Кадры) : 0.044
Размер потока : 69,5 Мбайт (93%)
Default : Да
Forced : Нет
Цветовой диапазон : Limited
Основные цвета : BT.709
Характеристики трансфера : BT.709
Коэффициенты матрицы : BT.709
Аудио
Идентификатор : 2
Формат : AAC LC
Формат/Информация : Advanced Audio Codec Low Complexity
Идентификатор кодека : A_AAC-2
Продолжительность : 5 м. 54 с.
Битрейт : 128 Кбит/сек
Каналы : 2 канала
Channel layout : L R
Частота : 44,1 КГц
Частота кадров : 43,066 кадра/сек (1024 SPF)
Метод сжатия : С потерями
Размер потока : 5,40 Мбайт (7%)
Язык : English
Default : Да
Forced : Нет
Текст
Идентификатор : 3
Формат : ASS
Идентификатор кодека : S_TEXT/ASS
Идентификатор кодека/Информация : Advanced Sub Station Alpha
Продолжительность : 4 м. 36 с.
Битрейт : 43 бит/сек
Count of elements : 19
Метод сжатия : Без потерь
Размер потока : 1,46 Кбайт (0%)
Default : Да
Forced : Нет

Скриншоты




T.R.A.C.E.torrent
 SILVER TORRENT! DOWNLOAD TRAFFIC PARTIALLY CONSIDERED! 
Torrent: Registered [ 2021-05-06 11:05 ]

Download .torrent

Download

12 KB

Status: checked
Completed: 2 times
Size: 75 MB
 
[Profile] [PM]

Darth_47

Gender: Male

Longevity: 2 years 4 months

Posts: 944

Post 06-May-2021 17:52 (after 6 hours)

[Quote]

Это что такое?! ai Американская пародия на Десятого Доктора?!
[Profile] [PM]

Faer ®

Gender: Male

Longevity: 6 years 8 months

Posts: 687

Post 07-May-2021 02:08 (after 8 hours)

[Quote]

29422Это что такое?! ai Американская пародия на Десятого Доктора?!
Не пародия, а фанфикшен.
[Profile] [PM]

Darth_47

Gender: Male

Longevity: 2 years 4 months

Posts: 944

Post 07-May-2021 12:54 (after 10 hours)

[Quote]

Будут все серии - качну, гляну. А так ради пяти минут, которые забудутся пока ждешь следующую серию, - не вижу смысла.
[Profile] [PM]

Faer ®

Gender: Male

Longevity: 6 years 8 months

Posts: 687

Post 07-May-2021 13:30 (after 36 minutes)

[Quote]

29427Будут все серии - качну, гляну. А так ради пяти минут, которые забудутся пока ждешь следующую серию, - не вижу смысла.
Не быстро, но сделаем. Там тайминг убитый, и автосабы ютуба полное Г. Первый опыт перевода по слуху получается.
[Profile] [PM]
Display posts:    
Reply to topic

Current time is: 23-Sep 08:25

All times are UTC + 3



You can post new topics in this forum
You cannot reply to topics in this forum
You cannot edit your posts in this forum
You cannot delete your posts in this forum
You cannot vote in polls in this forum
You cannot attach files in this forum
You can download files in this forum