Лунная Маска (1982) / Gekko Kamen (Юкихиро Савада) [1982, Япония, токусацу, боевик, DVDRip] (СТ : [Olskan]) (Sub Rus)

Reply to topic
DL-List and Torrent activity
Size:  2.24 GB   |    Registered:  3 months 12 days   |    Completed:  2 times

Seeders:

Username ULR UL DL UL speed DL speed
pompilius 0 0- 0- 0- 0-
moNTer 0 0- 0- 0- 0-
shows data only for the current session
 
   
 
 
 
Author Message

Faer ®

Gender: Male

Longevity: 6 years 6 months

Posts: 648

Post 21-Apr-2021 15:39

[Quote]

Лунная Маска (1982) / Gekko Kamen
Страна: Япония
Жанр: токусацу, боевик
Год выпуска: 1982
Продолжительность: 01:48:00
Перевод 1: Субтитры [Olskan]
Cубтитры: русские
Режиссер: Юкихиро Савада
В ролях: Такео Чии, Эцуко Шиноми, Дайдзиро Харада
Описание: Противостояние Лунной Маски и деструктивного религиозного культа.
Доп. информация: Японский ответ фильму "Одинокий рейнджер", первый (и последний) фильм о Лунной Маске, снятый без оригинального сценария в виде сериала. Потому он и провалился в прокате.
Качество видео: DVDRip
Формат видео: MKV

Видео: AVC, 1280*720, 16:9, 29.97fps, 2800 Кбит/с
Аудио 1: AAC, 48КГц, 141 Кбит/с, стерео
Формат субтитров: softsub (SSA/ASS)
Работа над релизом:
Видеоряд найден на nyaa
Перевод: Uboaface & Mr.Faer [Olskan]
Оформление: Laman [Olskan]
Спонсоры перевода: Tokufan inc, pompilius

MediaInfo

Общее
Уникальный идентификатор : 189917102932159880872040373411586325876 (0x8EE0B41BC6B86B2901CD95D1F9993D74)
Полное имя : C:\Users\Ysera\Desktop\Gekko Kamen 1981.mkv
Формат : Matroska
Версия формата : Version 4
Размер файла : 2,24 Гбайт
Продолжительность : 1 ч. 47 м.
Общий поток : 2 977 Кбит/сек
Дата кодирования : UTC 2021-04-21 12:24:58
Программа кодирования : mkvmerge v46.0.0 ('No Deeper Escape') 64-bit
Библиотека кодирования : libebml v1.3.10 + libmatroska v1.5.2
Видео
Идентификатор : 1
Формат : AVC
Формат/Информация : Advanced Video Codec
Профиль формата : High@L4.1
Настройки формата : CABAC / 4 Ref Frames
Параметр CABAC формата : Да
Параметр RefFrames формата : 4 кадра
Идентификатор кодека : V_MPEG4/ISO/AVC
Продолжительность : 1 ч. 47 м.
Битрейт : 2 800 Кбит/сек
Ширина : 1 280 пикселей
Высота : 720 пикселей
Соотношение сторон : 16:9
Режим частоты кадров : Постоянный
Частота кадров : 29,970 (30000/1001) кадров/сек
Цветовое пространство : YUV
Субдискретизация насыщенности : 4:2:0
Битовая глубина : 8 бит
Тип развёртки : Прогрессивная
Бит/(Пиксели*Кадры) : 0.101
Размер потока : 2,13 Гбайт (95%)
Библиотека кодирования : x264 core 148 r2638 7599210
Настройки программы : cabac=1 / ref=3 / deblock=1:0:0 / analyse=0x3:0x113 / me=umh / subme=8 / psy=1 / psy_rd=1.00:0.00 / mixed_ref=0 / me_range=16 / chroma_me=1 / trellis=2 / 8x8dct=1 / cqm=0 / deadzone=21,11 / fast_pskip=1 / chroma_qp_offset=-2 / threads=12 / lookahead_threads=2 / sliced_threads=0 / nr=0 / decimate=1 / interlaced=0 / bluray_compat=0 / constrained_intra=0 / bframes=3 / b_pyramid=2 / b_adapt=2 / b_bias=0 / direct=3 / weightb=1 / open_gop=0 / weightp=2 / keyint=300 / keyint_min=29 / scenecut=40 / intra_refresh=0 / rc_lookahead=40 / rc=abr / mbtree=1 / bitrate=2800 / ratetol=1.0 / qcomp=0.60 / qpmin=0 / qpmax=69 / qpstep=4 / ip_ratio=1.40 / aq=1:1.00
Default : Да
Forced : Нет
Аудио
Идентификатор : 2
Формат : AAC LC
Формат/Информация : Advanced Audio Codec Low Complexity
Идентификатор кодека : A_AAC-2
Продолжительность : 1 ч. 47 м.
Битрейт : 141 Кбит/сек
Каналы : 2 канала
Channel layout : L R
Частота : 48,0 КГц
Частота кадров : 46,875 кадров/сек (1024 SPF)
Метод сжатия : С потерями
Задержка видео : 100 мс.
Размер потока : 108 Мбайт (5%)
Default : Да
Forced : Нет
Текст #1
Идентификатор : 3
Формат : ASS
Идентификатор кодека : S_TEXT/ASS
Идентификатор кодека/Информация : Advanced Sub Station Alpha
Продолжительность : 1 ч. 47 м.
Битрейт : 77 бит/сек
Count of elements : 906
Метод сжатия : Без потерь
Размер потока : 61,0 Кбайт (0%)
Заголовок : Olskan-ass
Язык : Russian
Default : Да
Forced : Нет
Текст #2
Идентификатор : 4
Формат : UTF-8
Идентификатор кодека : S_TEXT/UTF8
Идентификатор кодека/Информация : UTF-8 Plain Text
Продолжительность : 1 ч. 47 м.
Битрейт : 53 бит/сек
Count of elements : 910
Размер потока : 42,0 Кбайт (0%)
Заголовок : Olskan-srt
Язык : Russian
Default : Нет
Forced : Нет

Скриншоты




cd Рип будет залит на mail.ru чуть позже cd2
Gekko Kamen 1981.mkv.torrent
 GOLD TORRENT! DOWNLOAD TRAFFIC DOES NOT CONSIDER! 
Torrent: Registered [ 2021-04-21 15:39 ]

Download .torrent

Download

90 KB

Status: checked
Completed: 2 times
Size: 2.24 GB
 
[Profile] [PM]

Faer ®

Gender: Male

Longevity: 6 years 6 months

Posts: 648

Post 22-Apr-2021 01:31 (after 9 hours)

[Quote]

В комплекте два вида субтитров: srt и ass. Специально для железных плееров.
[Profile] [PM]
Display posts:    
Reply to topic

Current time is: 03-Aug 17:56

All times are UTC + 3



You can post new topics in this forum
You cannot reply to topics in this forum
You cannot edit your posts in this forum
You cannot delete your posts in this forum
You cannot vote in polls in this forum
You cannot attach files in this forum
You can download files in this forum