Женщина-суперполицейский: Спецэпизод для DVD / Lady Battle Cop: Disc End Special (Акихиса Окамото) [1990, Япония, фантастика, боевик, DVDRip] (СТ : Mr.Faer [Olskan]) (Sub Rus)

Reply to topic
DL-List and Torrent activity
Size:  145 MB   |    Registered:  9 days   |    Completed:  0 times

Seeder not seen: 3 hours

 
   
 
 
 
Author Message

Faer ®

Gender: Male

Longevity: 6 years 3 months

Posts: 571

Post 02-Apr-2021 03:56

[Quote]

Женщина-суперполицейский: Спецэпизод для DVD / Lady Battle Cop: Disc End Special
Страна: Япония
Жанр: фантастика, боевик
Год выпуска: 1990
Продолжительность: 00:15:25
Перевод 1: Субтитры Mr.Faer [Olskan]
Cубтитры: русские
Режиссер: Акихиса Окамото
В ролях: Адзуса Накамура, Кисуке Ямасита, Масару Мацуда, Сиро Сано, Юки Китадзуме
Описание: Бэкстейдж со съёмок и немного ляпов.
Доп. информация: Выпускался только для DVD, на кассетах этого эпизода не было.


Качество видео: DVDRip
Формат видео: MKV
Формат субтитров: softsub (SSA/ASS)

MediaInfo

Общее
Уникальный идентификатор : 11460709292384049536660989914344660701 (0x89F40981C1E6A1934D1192EAAA11EDD)
Полное имя : C:\Users\Ysera\Desktop\Lady Battle Cop Disc End Special.mkv
Формат : Matroska
Версия формата : Version 4
Размер файла : 145 Мбайт
Продолжительность : 15 м. 25 с.
Общий поток : 1 315 Кбит/сек
Дата кодирования : UTC 2021-04-02 00:48:13
Программа кодирования : mkvmerge v46.0.0 ('No Deeper Escape') 64-bit
Библиотека кодирования : libebml v1.3.10 + libmatroska v1.5.2
Attachments : Typoline_italic_demo.otf / Aller.ttf / Aller_BdIt.ttf / LinLibertine_RB.ttf
Видео
Идентификатор : 1
Формат : AVC
Формат/Информация : Advanced Video Codec
Профиль формата : High 10@L5.1
Настройки формата : CABAC / 16 Ref Frames
Параметр CABAC формата : Да
Параметр RefFrames формата : 16 кадров
Идентификатор кодека : V_MPEG4/ISO/AVC
Продолжительность : 15 м. 25 с.
Битрейт : 1 127 Кбит/сек
Ширина : 640 пикселей
Высота : 480 пикселей
Соотношение сторон : 4:3
Режим частоты кадров : Постоянный
Частота кадров : 23,976 (24000/1001) кадра/сек
Цветовое пространство : YUV
Субдискретизация насыщенности : 4:2:0
Битовая глубина : 10 бит
Тип развёртки : Прогрессивная
Бит/(Пиксели*Кадры) : 0.153
Размер потока : 124 Мбайт (86%)
Библиотека кодирования : x264 core 142 r2479 dd79a61
Настройки программы : cabac=1 / ref=16 / deblock=1:-1:-1 / analyse=0x3:0x133 / me=umh / subme=10 / psy=1 / psy_rd=1.00:0.15 / mixed_ref=1 / me_range=24 / chroma_me=1 / trellis=2 / 8x8dct=1 / cqm=0 / deadzone=21,11 / fast_pskip=1 / chroma_qp_offset=-3 / threads=6 / lookahead_threads=1 / sliced_threads=0 / nr=0 / decimate=1 / interlaced=0 / bluray_compat=0 / constrained_intra=0 / bframes=8 / b_pyramid=2 / b_adapt=2 / b_bias=0 / direct=3 / weightb=1 / open_gop=0 / weightp=2 / keyint=250 / keyint_min=23 / scenecut=40 / intra_refresh=0 / rc_lookahead=60 / rc=crf / mbtree=1 / crf=20.0 / qcomp=0.60 / qpmin=0 / qpmax=81 / qpstep=4 / ip_ratio=1.40 / aq=1:1.00
Язык : English
Default : Да
Forced : Нет
Цветовой диапазон : Limited
Коэффициенты матрицы : BT.470 System B/G
Аудио
Идентификатор : 2
Формат : AAC LC
Формат/Информация : Advanced Audio Codec Low Complexity
Идентификатор кодека : A_AAC-2
Продолжительность : 15 м. 25 с.
Битрейт : 175 Кбит/сек
Каналы : 2 канала
Channel layout : L R
Частота : 48,0 КГц
Частота кадров : 46,875 кадров/сек (1024 SPF)
Метод сжатия : С потерями
Задержка видео : 9 мс.
Размер потока : 19,3 Мбайт (13%)
Язык : Japanese
Default : Да
Forced : Нет
Текст
Идентификатор : 3
Формат : ASS
Идентификатор кодека : S_TEXT/ASS
Идентификатор кодека/Информация : Advanced Sub Station Alpha
Продолжительность : 15 м. 20 с.
Битрейт : 131 бит/сек
Count of elements : 188
Метод сжатия : Без потерь
Размер потока : 14,8 Кбайт (0%)
Заголовок : Olskan
Язык : Russian
Default : Да
Forced : Нет

Скриншоты




cd Рип дополнительно залит на mail.ru cd2
Lady Battle Cop Disc End Special.mkv.torrent
 GOLD TORRENT! DOWNLOAD TRAFFIC DOES NOT CONSIDER! 
Torrent: Registered [ 2021-04-02 03:56 ]

Download .torrent

Download

23 KB

Status: checked
Completed: 0 times
Size: 145 MB
 
[Profile] [PM]
Display posts:    
Reply to topic

Current time is: 12-Apr 02:52

All times are UTC + 3



You can post new topics in this forum
You cannot reply to topics in this forum
You cannot edit your posts in this forum
You cannot delete your posts in this forum
You cannot vote in polls in this forum
You cannot attach files in this forum
You can download files in this forum