Покоритель Космоса / Робот Кинг / The Cosmos Conqueror / Roboteu King (Джонни Ти Ховард) [1981, Южная Корея, Гонконг, фантастика, меха, DVDRip-AVC] (АО : Трамвай-фильм)

Reply to topic
DL-List and Torrent activity
Size:  536 MB   |    Registered:  14 days   |    Completed:  5 times

Seeder not seen: 1 hour 2 minutes

 
   
 
 
 
Author Message

Трамвай-фильм ®

Gender: Male

Longevity: 6 years 8 months

Posts: 1896

Location: Россия

Post 28-Mar-2021 13:29

[Quote]

Покоритель Космоса / Робот Кинг / The Cosmos Conqueror / Roboteu King
Страна: Южная Корея, Гонконг
Жанр: фантастика, меха
Год выпуска: 1981
Продолжительность: 01:04:41
Перевод : Авторский (одноголосый) Трамвай-фильм
Режиссер: Джонни Ти Ховард
Описание: Зловещий монстр Канева покоряет одну планету за другой, его последняя цель - Земля. Но на помощь землянам с Ориона приходит огромный Робот Кинг, пилотировать которого берутся 3 подопечных доктора Хоя.
Доп. информация: Гонконгская (англоязычная) версия корейского клона Гатчаман/Мазингер сделанного в Южной Корее
Rip взят с archive.org

Качество видео: DVDRip-AVC
Видео: MPEG4 Video (H264), 720x480, 29.97fps, 708 kb/s
Аудио 1: Dolby AC3, 48000Hz, stereo, 192kbps (Трамвай-фильм)
Аудио 2: Dolby AC3, 48000Hz, stereo, 256kbps (Оригинал)

MediaInfo

General
Format : Matroska
Format version : Version 4 / Version 2
File size : 536 MiB
Duration : 1 h 4 min
Overall bit rate : 1 158 kb/s
Encoded date : UTC 2021-03-28 10:10:27
Writing application : mkvmerge v7.1.0 ('Good Love') 32bit built on Jul 27 2014 12:59:18
Writing library : libebml v1.3.0 + libmatroska v1.4.1
Video
ID : 1
Format : AVC
Format/Info : Advanced Video Codec
Format profile : High@L3
Format settings : CABAC / 4 Ref Frames
Format settings, CABAC : Yes
Format settings, ReFrames : 4 frames
Codec ID : V_MPEG4/ISO/AVC
Duration : 1 h 4 min
Bit rate : 708 kb/s
Width : 720 pixels
Height : 480 pixels
Display aspect ratio : 4:3
Frame rate mode : Constant
Frame rate : 29.970 (29970/1000) FPS
Original frame rate : 29.970 (30000/1001) FPS
Standard : NTSC
Color space : YUV
Chroma subsampling : 4:2:0
Bit depth : 8 bits
Scan type : Progressive
Bits/(Pixel*Frame) : 0.068
Stream size : 327 MiB (61%)
Writing library : x264 core 155
Encoding settings : cabac=1 / ref=3 / deblock=1:0:0 / analyse=0x3:0x13 / me=hex / subme=7 / psy=1 / psy_rd=1.00:0.00 / mixed_ref=1 / me_range=16 / chroma_me=1 / trellis=1 / 8x8dct=1 / cqm=0 / deadzone=21,11 / fast_pskip=1 / chroma_qp_offset=-2 / threads=12 / lookahead_threads=2 / sliced_threads=0 / nr=0 / decimate=1 / interlaced=0 / bluray_compat=0 / constrained_intra=0 / bframes=3 / b_pyramid=2 / b_adapt=1 / b_bias=0 / direct=1 / weightb=1 / open_gop=0 / weightp=2 / keyint=250 / keyint_min=25 / scenecut=40 / intra_refresh=0 / rc_lookahead=40 / rc=crf / mbtree=1 / crf=23.0 / qcomp=0.60 / qpmin=10 / qpmax=51 / qpstep=4 / ip_ratio=1.40 / aq=1:1.00
Default : Yes
Forced : No
Audio #1
ID : 2
Format : AC-3
Format/Info : Audio Coding 3
Codec ID : A_AC3
Duration : 1 h 4 min
Bit rate mode : Constant
Bit rate : 192 kb/s
Channel(s) : 2 channels
Channel positions : Front: L R
Sampling rate : 48.0 kHz
Frame rate : 31.250 FPS (1536 SPF)
Bit depth : 16 bits
Compression mode : Lossy
Stream size : 88.8 MiB (17%)
Title : tramvai.film
Language : Russian
Service kind : Complete Main
Default : Yes
Forced : No
Audio #2
ID : 3
Format : AC-3
Format/Info : Audio Coding 3
Codec ID : A_AC3
Duration : 1 h 4 min
Bit rate mode : Constant
Bit rate : 256 kb/s
Channel(s) : 2 channels
Channel positions : Front: L R
Sampling rate : 48.0 kHz
Frame rate : 31.250 FPS (1536 SPF)
Bit depth : 16 bits
Compression mode : Lossy
Delay relative to video : 63 ms
Stream size : 118 MiB (22%)
Language : English
Service kind : Complete Main
Default : No
Forced : No

Скриншоты





Cosmos Conqueror (1981).mkv.torrent
Torrent: Registered [ 2021-03-28 13:29 ]

Download .torrent

Download

11 KB

Status: checked
Completed: 5 times
Size: 536 MB
 
[Profile] [PM]
Display posts:    
Reply to topic

Current time is: 12-Apr 02:54

All times are UTC + 3



You cannot post new topics in this forum
You cannot reply to topics in this forum
You cannot edit your posts in this forum
You cannot delete your posts in this forum
You cannot vote in polls in this forum
You cannot attach files in this forum
You can download files in this forum